<?xml version="1.0" standalone="no"?>
<!DOCTYPE svg PUBLIC "-//W3C//DTD SVG 1.1//EN" "http://www.w3.org/Graphics/SVG/1.1/DTD/svg11.dtd" >
<svg xmlns="http://www.w3.org/2000/svg" xmlns:xlink="http://www.w3.org/1999/xlink" version="1.1">
<metadata>
Created by FontForge 20170812 at Thu Mar 24 11:53:06 2022
 By www-data
</metadata>
<defs>
<font id="VeryHappyFamilyRegular" horiz-adv-x="501" >
  <font-face 
    font-family="Very Happy Family"
    font-weight="400"
    font-stretch="normal"
    units-per-em="1000"
    panose-1="0 0 0 0 0 0 0 0 0 0"
    ascent="800"
    descent="-200"
    x-height="682.021"
    cap-height="669.43"
    bbox="-180 -395.414 989.612 906.34"
    underline-thickness="50"
    underline-position="-100"
    unicode-range="U+000A-20AC"
  />
<missing-glyph horiz-adv-x="527" 
d="M50 700h427v-700h-427v700zM78 680l185 -309l186 309h-371zM251 350l-180 300v-601zM264 329l-185 -308h370zM276 350l181 -303v605z" />
    <glyph glyph-name=".notdef" horiz-adv-x="527" 
d="M50 700h427v-700h-427v700zM78 680l185 -309l186 309h-371zM251 350l-180 300v-601zM264 329l-185 -308h370zM276 350l181 -303v605z" />
    <glyph glyph-name=".null" horiz-adv-x="0" 
 />
    <glyph glyph-name=".null" horiz-adv-x="0" 
 />
    <glyph glyph-name="LF" unicode="&#xa;" horiz-adv-x="0" 
 />
    <glyph glyph-name="controlCR" unicode="&#xd;" horiz-adv-x="0" 
 />
    <glyph glyph-name="space" unicode=" " horiz-adv-x="265" 
 />
    <glyph glyph-name="exclam" unicode="!" horiz-adv-x="151" 
d="M120.062 134.962c0.0751953 -39.1748 -90.5449 -41.6074 -90.6162 -3.16602c-0.442383 224.986 -0.446289 449.97 -0.446289 674.953c0 39.1895 90.6162 41.5889 90.6162 3.16602c0 -224.986 0.00390625 -449.97 0.446289 -674.953zM120.38 29.6787
c2.36914 -50.3799 4.73828 -100.76 7.10742 -151.144c1.8252 -38.7705 -88.7949 -41.9629 -90.6162 -3.16211l-7.10742 151.14c-1.8252 38.7744 88.7949 41.9668 90.6162 3.16602z" />
    <glyph glyph-name="quotedbl" unicode="&#x22;" horiz-adv-x="297" 
d="M108.633 746.239c2.55762 -87.2275 14.9502 -173.999 38.3359 -258.121c5.67871 -20.4199 -12.0635 -32.3096 -30.4209 -36.2158c-15.4902 -3.29492 -50.9209 -1.84375 -56.4326 17.9912c-24.8184 89.2676 -39.3828 180.526 -42.1025 273.18
c-1.14062 38.9482 89.4834 41.8457 90.6201 3.16602zM275.42 488.126c5.67871 -20.4238 -12.0635 -32.3145 -30.4209 -36.2207c-15.4902 -3.29492 -50.9209 -1.84375 -56.4326 17.9912c-24.8184 89.2676 -39.3828 180.526 -42.1025 273.18
c-1.14062 38.9482 89.4834 41.8457 90.6201 3.16602c2.56152 -87.2275 14.9531 -174.002 38.3359 -258.116z" />
    <glyph glyph-name="quotedbl" unicode="&#x201d;" horiz-adv-x="297" 
d="M108.633 746.239c2.55762 -87.2275 14.9502 -173.999 38.3359 -258.121c5.67871 -20.4199 -12.0635 -32.3096 -30.4209 -36.2158c-15.4902 -3.29492 -50.9209 -1.84375 -56.4326 17.9912c-24.8184 89.2676 -39.3828 180.526 -42.1025 273.18
c-1.14062 38.9482 89.4834 41.8457 90.6201 3.16602zM275.42 488.126c5.67871 -20.4238 -12.0635 -32.3145 -30.4209 -36.2207c-15.4902 -3.29492 -50.9209 -1.84375 -56.4326 17.9912c-24.8184 89.2676 -39.3828 180.526 -42.1025 273.18
c-1.14062 38.9482 89.4834 41.8457 90.6201 3.16602c2.56152 -87.2275 14.9531 -174.002 38.3359 -258.116z" />
    <glyph glyph-name="quotedbl" unicode="&#x201c;" horiz-adv-x="297" 
d="M108.633 746.239c2.55762 -87.2275 14.9502 -173.999 38.3359 -258.121c5.67871 -20.4199 -12.0635 -32.3096 -30.4209 -36.2158c-15.4902 -3.29492 -50.9209 -1.84375 -56.4326 17.9912c-24.8184 89.2676 -39.3828 180.526 -42.1025 273.18
c-1.14062 38.9482 89.4834 41.8457 90.6201 3.16602zM275.42 488.126c5.67871 -20.4238 -12.0635 -32.3145 -30.4209 -36.2207c-15.4902 -3.29492 -50.9209 -1.84375 -56.4326 17.9912c-24.8184 89.2676 -39.3828 180.526 -42.1025 273.18
c-1.14062 38.9482 89.4834 41.8457 90.6201 3.16602c2.56152 -87.2275 14.9531 -174.002 38.3359 -258.116z" />
    <glyph glyph-name="numbersign" unicode="#" horiz-adv-x="710" 
d="M613.325 439.727c16.0342 -0.135742 45.5557 -5.42773 46.3037 -26.9551c0.713867 -20.5068 -27.8555 -30.2695 -44.3125 -30.126c-33.4961 0.287109 -66.9883 0.574219 -100.477 0.831055c-9.9707 -42.9717 -19.6084 -86.0186 -28.9102 -129.138
c25.9814 -0.208008 51.9668 -0.430664 77.9561 -0.65332c16.0381 -0.139648 45.5557 -5.4248 46.3076 -26.9639c0.713867 -20.5068 -27.8555 -30.2695 -44.3125 -30.126c-30.6816 0.264648 -61.3594 0.525391 -92.0332 0.767578
c-17.832 -85.5127 -34.376 -171.29 -49.5293 -257.316c-3.70605 -21.04 -24.3564 -29.4307 -44.3125 -30.126c-13.2236 -0.464844 -49.916 6.46777 -46.3047 26.96c15.377 87.2842 32.0869 174.315 50.0703 261.071c-28.4785 0.143555 -56.9541 0.214844 -85.4326 0.222656
c-17.9004 -85.7773 -34.4971 -171.83 -49.7002 -258.128c-3.70605 -21.04 -24.3564 -29.4307 -44.3125 -30.126c-13.2236 -0.464844 -49.916 6.46777 -46.3047 26.96c15.373 87.2734 32.0791 174.293 50.0625 261.041c-37.248 -0.245117 -74.5 -0.657227 -111.756 -1.33008
c-16.0303 -0.287109 -45.5674 5.74219 -46.3076 26.9639c-0.725586 20.8096 27.8555 29.8311 44.3125 30.126c41.9365 0.755859 83.8652 1.18652 125.794 1.40918c9.21484 43.0059 18.7354 85.9434 28.5996 128.802c-34.3203 -0.25293 -68.6396 -0.634766 -102.963 -1.25391
c-16.0303 -0.291016 -45.5674 5.73828 -46.3076 26.96c-0.725586 20.8096 27.8555 29.8281 44.3125 30.127c39.4502 0.709961 78.8965 1.14453 118.336 1.38281c29.6611 125.02 62.084 249.39 97.3525 373c10.0156 35.1094 99.6494 29.0195 87.9111 -12.123
c-34.1045 -119.526 -65.6328 -239.793 -94.5693 -360.68c28.3242 -0.0224609 56.6484 -0.0976562 84.9727 -0.245117c29.665 125.034 62.0918 249.423 97.3633 373.048c10.0156 35.1094 99.6494 29.0195 87.9111 -12.123
c-34.1836 -119.817 -65.7832 -240.371 -94.7764 -361.548c28.3506 -0.226562 56.7012 -0.46875 85.0557 -0.710938zM395.785 254.962c9.2334 43.0928 18.7744 86.1211 28.6543 129.066c-28.3691 0.131836 -56.7344 0.196289 -85.1035 0.192383
c-9.95898 -42.915 -19.5928 -85.9092 -28.8867 -128.972c28.4453 -0.0341797 56.8906 -0.128906 85.3359 -0.287109z" />
    <glyph glyph-name="dollar" unicode="$" horiz-adv-x="419" 
d="M353.294 528.945c-13.9717 -0.487305 -48.9082 6.26465 -46.3086 26.957c3.37402 26.8359 -0.192383 53.5127 -19.9443 73.4307c-5.31543 5.36133 -14.2471 11.4141 -20.0352 14.5156c0.00390625 -31.9473 0 -63.8945 0.00390625 -95.8418
c0.00390625 -83.4795 0.0419922 -166.955 0.0839844 -250.431c56.0889 -47.4141 116.458 -102.264 125.174 -176.846c5.46289 -46.75 -14.3525 -92.665 -51.5059 -121.159c-21.4443 -16.4463 -46.833 -25.6416 -73.3516 -29.3477
c0.0185547 -12.9326 0.0224609 -25.8652 0.0410156 -38.7979c0.0644531 -39.1748 -90.5557 -41.6006 -90.6162 -3.16309c-0.0263672 16.0078 -0.0410156 32.0156 -0.0634766 48.0234c-4.17871 1.06934 -8.30859 2.21777 -12.3662 3.46875
c-90.25 27.791 -124.09 124.66 -106.673 211.431c4.0498 20.1826 40.0586 23.9912 55.0381 21.8828c18.376 -2.58398 37.0059 -13.4189 32.873 -34.0059c-0.0341797 -0.177734 -0.0605469 -0.291016 -0.0908203 -0.442383
c-0.0302734 -0.325195 -0.0644531 -0.72168 -0.128906 -1.2959c-0.196289 -1.81348 -0.43457 -3.61914 -0.612305 -5.43652c-0.392578 -4.03906 -0.634766 -8.09277 -0.774414 -12.1465c-0.34375 -10.0117 0 -20.0576 0.974609 -30.0283
c2.11523 -21.6104 7.4082 -42.3779 17.8701 -61.5361c4.15234 -7.60547 8.71973 -13.8203 13.79 -18.9736c-0.0224609 18.2441 -0.0527344 36.4883 -0.0712891 54.7324c-0.0605469 57.5439 -0.0722656 115.088 -0.102539 172.632
c-45.1475 37.8301 -90.8125 75.5879 -121.12 126.089c-28.3584 47.252 -40.335 110.55 -29.3262 164.455c12.4521 60.9697 63.0664 105.709 120.013 125.922c9.87598 3.50586 20.0273 6.43359 30.334 8.82129c0 17.9346 -0.00390625 35.8691 -0.00390625 53.8037
c0 39.1855 90.6162 41.585 90.6162 3.16211v-52.4805c21.0664 -3.05273 41.627 -9.1543 60.8271 -18.9697c48.4951 -24.792 76.6113 -73.9102 69.7695 -128.299c-2.66016 -21.127 -25.2344 -29.4609 -44.3135 -30.126zM150.393 408.399
c7.58301 -10.3975 16.4639 -20.5361 26.0488 -30.4121c-0.0263672 86.5967 -0.0410156 173.189 -0.0410156 259.786c-30.4697 -15.4785 -54.6719 -43.2627 -61.877 -79.9062c-9.66016 -49.1377 6.53223 -109.235 35.8691 -149.468zM300.248 126.589
c-4.74121 23.0537 -17.6035 44.3535 -33.0742 63.5459c0.0419922 -52.6279 0.110352 -105.26 0.174805 -157.892c29.9678 18.0742 40.1152 59.251 32.8994 94.3457z" />
    <glyph glyph-name="percent" unicode="%" horiz-adv-x="673" 
d="M200.134 302.813c-47.6602 -19.6758 -107.408 -12.3867 -141.15 28.7451c-42.8506 52.2275 -50.5918 130.327 -41.7168 195.064c8.86328 64.6309 35.1016 129.64 101.024 150.559c2.3916 0.853516 4.74121 1.54102 6.9248 2.00586
c1.89648 0.491211 3.97852 0.865234 6.1543 1.14453c36.7832 6.16211 74.6201 -2.40625 102.759 -27.7686c23.6396 -21.3086 37.7471 -52.126 46.1416 -82.2676c17.1035 -61.416 18.6221 -133.418 -7.47656 -192.711c-14.5605 -33.0811 -38.748 -60.7705 -72.6602 -74.7715z
M150.613 349.077c0.509766 -0.147461 0.619141 -0.0947266 0 0zM162.355 356.58c1.24316 0.963867 4.54883 4.46582 0 0zM153.821 625.312c-0.135742 -0.0488281 -0.279297 -0.0947266 -0.418945 -0.139648c6.0791 -0.0566406 3.62305 0.355469 0.418945 0.139648z
M152.907 625.002c-0.169922 -0.0566406 -0.34375 -0.117188 -0.517578 -0.177734c1.5791 -0.166016 1.49219 0.0078125 0.517578 0.177734zM151.185 624.737c-0.0986328 0.0605469 -0.195312 0.114258 -0.290039 0.174805
c-0.272461 -0.0566406 -0.567383 -0.101562 -0.84668 -0.154297c0.151367 -0.135742 0.302734 -0.271484 0.460938 -0.407227c0.234375 0.121094 0.46875 0.242188 0.699219 0.359375c-0.0078125 0.0078125 -0.015625 0.0195312 -0.0234375 0.0273438zM150.196 625.327
c-0.268555 0.0263672 -0.543945 0.0566406 -0.831055 0.0869141c0.0527344 -0.0605469 0.117188 -0.121094 0.181641 -0.185547c0.404297 -0.0644531 0.766602 -0.125 1.10254 -0.173828c-0.147461 0.0908203 -0.305664 0.177734 -0.453125 0.272461zM122.511 387.786
c3.94824 -9.01465 10.2891 -20.3965 13.7236 -24.6924c2.92773 -3.66895 8.59473 -9.6084 10.416 -11.4482c1.21289 -1.22363 2.32324 -1.87695 3.15039 -2.25098c4.51855 0.790039 8.50098 4.0957 12.5283 7.15234
c0.0078125 0.0078125 0.0195312 0.015625 0.0273438 0.0234375c1.83984 1.80566 3.61914 3.65332 5.33105 5.58008c13.707 15.418 21.5391 34.5762 27.4668 57.7812c11.3867 44.5889 9.16504 99.1289 -4.81738 142.546c-3.83105 11.8975 -8.56152 23.5645 -14.6182 34.5098
c-5.68262 10.2764 -5.06641 10.1367 -13.7676 19.1396c-2.05176 2.11914 -4.20117 4.10645 -6.42285 6.03711c-1.31055 0.800781 -2.65918 1.57129 -3.98926 2.35742c-0.0449219 -0.0146484 -0.0869141 -0.0292969 -0.131836 -0.0439453
c-0.0117188 0.0146484 -0.0234375 0.0292969 -0.0351562 0.0410156c-0.0644531 -0.0380859 -0.151367 -0.0908203 -0.219727 -0.128906c-0.166016 -0.0605469 -0.324219 -0.121094 -0.482422 -0.177734c0.0263672 -0.0224609 0.0488281 -0.0449219 0.0751953 -0.0634766
c-0.131836 -0.0791016 -0.233398 -0.139648 -0.380859 -0.226562c-1.27344 -0.751953 -3.13965 -2.20996 -3.89941 -2.77637c-1.65527 -1.59473 -3.25293 -3.25293 -4.77539 -4.95703c-8.76172 -9.7998 -11.335 -14.6055 -16.8398 -26.8271
c-11.9805 -26.5938 -17.666 -55.4014 -19.374 -84.3945c-1.62109 -27.5117 -0.106445 -55.5977 5.73438 -82.5732c2.56543 -11.8555 6.42676 -23.4883 11.3008 -34.6074zM642.712 222.793c17.1035 -61.4199 18.6221 -133.417 -7.47266 -192.71
c-14.5605 -33.0811 -38.748 -60.7705 -72.6602 -74.7715c-47.6602 -19.6758 -107.41 -12.3838 -141.155 28.7441c-42.8506 52.2275 -50.5918 130.327 -41.7168 195.064c8.86328 64.6309 35.1055 129.64 101.025 150.559c2.3916 0.853516 4.74121 1.54102 6.9248 2.00586
c1.89648 0.491211 3.97852 0.865234 6.1543 1.14453c36.7832 6.16211 74.6201 -2.40625 102.759 -27.7686c23.6396 -21.3086 37.751 -52.126 46.1416 -82.2676zM516.265 277.807c-0.139648 -0.0449219 -0.279297 -0.0947266 -0.422852 -0.143555
c6.08301 -0.0527344 3.62695 0.359375 0.422852 0.143555zM515.351 277.5c-0.169922 -0.0566406 -0.34375 -0.117188 -0.517578 -0.177734c1.5791 -0.166016 1.49219 0.0078125 0.517578 0.177734zM513.624 277.235
c-0.0947266 0.0566406 -0.192383 0.114258 -0.293945 0.170898c-0.272461 -0.0566406 -0.567383 -0.101562 -0.84668 -0.154297c0.151367 -0.135742 0.302734 -0.271484 0.460938 -0.407227c0.234375 0.121094 0.472656 0.242188 0.703125 0.359375
c-0.0078125 0.0117188 -0.015625 0.0195312 -0.0234375 0.03125zM512.639 277.825c-0.268555 0.0263672 -0.546875 0.0566406 -0.830078 0.0830078c0.0527344 -0.0566406 0.117188 -0.117188 0.181641 -0.181641c0.404297 -0.0644531 0.766602 -0.125 1.10254 -0.173828
c-0.151367 0.0908203 -0.306641 0.177734 -0.454102 0.272461zM513.056 1.57031c0.513672 -0.147461 0.619141 -0.0947266 0 0zM524.798 9.07324c1.24316 0.959961 4.55273 4.46582 0 0zM557.592 72.4316c11.3828 44.585 9.16602 99.126 -4.8125 142.543
c-3.83105 11.8975 -8.56152 23.5645 -14.6182 34.5098c-5.68262 10.2725 -5.06641 10.1367 -13.7676 19.1396c-2.04785 2.11914 -4.19727 4.10645 -6.41895 6.03711c-1.31055 0.800781 -2.65918 1.57129 -3.98926 2.35742
c-0.0419922 -0.0146484 -0.0869141 -0.0292969 -0.131836 -0.0439453c-0.0117188 0.0146484 -0.0234375 0.0292969 -0.0351562 0.0410156c-0.0644531 -0.0380859 -0.151367 -0.0869141 -0.219727 -0.128906c-0.166016 -0.0566406 -0.321289 -0.117188 -0.483398 -0.173828
c0.0263672 -0.0224609 0.0488281 -0.0449219 0.0751953 -0.0673828c-0.131836 -0.0791016 -0.233398 -0.139648 -0.380859 -0.226562c-1.27344 -0.751953 -3.13965 -2.20996 -3.89941 -2.77637c-1.65527 -1.59473 -3.25293 -3.25293 -4.77539 -4.95703
c-8.75781 -9.7998 -11.334 -14.6055 -16.8389 -26.8271c-11.9805 -26.5938 -17.666 -55.4014 -19.374 -84.3945c-1.62109 -27.5117 -0.106445 -55.5977 5.73438 -82.5732c2.56543 -11.8555 6.42676 -23.4883 11.3008 -34.6074
c3.94824 -9.01465 10.292 -20.3975 13.7148 -24.6895c2.92773 -3.66895 8.59473 -9.6084 10.416 -11.4482c1.21289 -1.22363 2.32324 -1.87695 3.15039 -2.25098c4.51855 0.790039 8.50098 4.0918 12.5283 7.15234
c0.0078125 0.0078125 0.0195312 0.015625 0.0273438 0.0234375c1.83984 1.80566 3.61914 3.65332 5.33105 5.58008c13.707 15.4141 21.543 34.5762 27.4668 57.7812zM513.843 276.973c1.74512 -2.1084 0.600586 -1.38965 -0.661133 -0.332031
c0.139648 0.0830078 0.283203 0.166016 0.408203 0.241211c0.0830078 0.0302734 0.169922 0.0605469 0.25293 0.0908203zM541.717 718.307c19.4756 29.9863 105.575 14.4453 79.2539 -26.082c-164.421 -253.148 -308.837 -519.07 -432.485 -794.426
c-15.1689 -33.7832 -104.796 -25.4717 -87.9121 12.124c28.0479 62.4551 57.1084 124.453 87.2803 185.911c105.264 214.42 223.763 422.164 353.863 622.473z" />
    <glyph glyph-name="ampersand" unicode="&#x26;" horiz-adv-x="577" 
d="M492.413 70.1953c15.124 -3.32422 40.793 -13.0312 32.8701 -34.0068c-7.13281 -18.8867 -37.3535 -25.7744 -55.0381 -21.8828c-50.8945 11.1943 -97.6064 34.0928 -140.744 62.8584c-9.3623 -11.0586 -19 -21.8975 -29.0156 -32.416
c-54.8418 -57.6006 -136.977 -108.562 -218.771 -75.875c-76.332 30.5039 -65.5156 117.584 -38.4346 179.657c20.6318 47.2861 49.4775 90.6426 80.0303 132.454c-11.4248 16.4648 -22.2227 33.3486 -32.3516 50.5957c-37.1689 63.3008 -65.2666 136.724 -52.6367 211.091
c12.0176 70.7666 58.4727 127.785 128.465 147.299c66.6562 18.584 148.542 0.362305 183.848 -63.6299c36.5674 -66.2783 8.69629 -143.211 -27.543 -202.644c-30.1416 -49.4355 -65.6855 -94.9727 -100.194 -141.303c26.6357 -35.2754 56.5879 -68.0391 89.0605 -98.0254
c21.0439 30.168 41.0898 61.0684 61.0645 91.8936c19.4453 30.0088 105.536 14.4814 79.252 -26.0801c-25.46 -39.292 -51.0371 -78.7988 -78.6924 -116.704c8.98828 -6.58496 18.082 -13.0381 27.4102 -19.1777c27.9385 -18.3916 58.3447 -36.8281 91.4219 -44.1045z
M126.491 528.706c-6.30566 -63.2861 18.6191 -123.064 50.0869 -176.838c37.9541 49.6133 78.3115 102.237 95.1953 162.267c8.44727 30.0352 7.92969 63.4033 -6.66895 91.4551c-6.0752 11.6738 -14.8857 22.2598 -26.749 28.3496
c-8.12305 4.1709 -18.4707 5.79883 -21.6484 5.81738c-19.2227 0.113281 -40.3643 -9.90234 -56.8936 -29.2002c-19.291 -22.5205 -30.3984 -52.4951 -33.3223 -81.8506zM234.865 85.6064c11.2246 12.5049 21.9863 25.377 32.4287 38.5059
c-7.82812 6.56641 -15.5391 13.2344 -23.1143 19.9932c-24.6143 21.9619 -47.793 45.6123 -69.4219 70.6191c-15.2598 -23.1328 -29.3408 -47.0635 -40.8643 -72.2861c-13.5479 -29.6504 -27.9307 -67.208 -19.5703 -100.326
c7.14453 -28.3047 24.4629 -29.2412 46.3984 -19.1426c29.4873 13.5742 52.8242 38.8838 74.1436 62.6367z" />
    <glyph glyph-name="quotesingle" unicode="'" horiz-adv-x="169" 
d="M146.965 488.127c5.67871 -20.4238 -12.0635 -32.3145 -30.417 -36.2207c-15.4863 -3.29492 -50.9209 -1.84375 -56.4326 17.9912c-24.8184 89.2676 -39.3828 180.526 -42.1025 273.18c-1.14453 38.9482 89.4795 41.8457 90.6162 3.16602
c2.56152 -87.2275 14.9502 -174.002 38.3359 -258.116z" />
    <glyph glyph-name="quotesingle" unicode="&#x2019;" horiz-adv-x="169" 
d="M146.965 488.127c5.67871 -20.4238 -12.0635 -32.3145 -30.417 -36.2207c-15.4863 -3.29492 -50.9209 -1.84375 -56.4326 17.9912c-24.8184 89.2676 -39.3828 180.526 -42.1025 273.18c-1.14453 38.9482 89.4795 41.8457 90.6162 3.16602
c2.56152 -87.2275 14.9502 -174.002 38.3359 -258.116z" />
    <glyph glyph-name="quotesingle" unicode="&#x2018;" horiz-adv-x="169" 
d="M146.965 488.127c5.67871 -20.4238 -12.0635 -32.3145 -30.417 -36.2207c-15.4863 -3.29492 -50.9209 -1.84375 -56.4326 17.9912c-24.8184 89.2676 -39.3828 180.526 -42.1025 273.18c-1.14453 38.9482 89.4795 41.8457 90.6162 3.16602
c2.56152 -87.2275 14.9502 -174.002 38.3359 -258.116z" />
    <glyph glyph-name="parenleft" unicode="(" horiz-adv-x="382" 
d="M321.741 -209.067c16.8086 -14.2891 -0.479492 -33.6162 -14.8965 -39.6162c-20.0918 -8.37598 -45.6016 -6.16602 -62.3496 8.07324c-64.1553 54.5479 -115.511 123.773 -151.724 199.686c-69.8828 146.486 -81.8936 311.667 -53.4678 469.99
c15.2861 85.1387 41.627 167.923 76.1699 247.171c31.9316 73.2598 70.3623 146.743 130.256 201.132c16.4424 14.9307 40.3613 19.5664 61.6318 12.4033c14.3301 -4.82422 33.7832 -23.8086 17.6211 -38.4863c-64.7178 -58.7676 -102.774 -139.218 -134.971 -219.052
c-60.252 -149.403 -91.542 -313.106 -66.3916 -473.704c22.0303 -140.668 88.9131 -274.747 198.121 -367.597z" />
    <glyph glyph-name="parenright" unicode=")" horiz-adv-x="382" 
d="M278.104 647.409c63.4521 -157.337 96.7529 -331.905 67.6768 -500.735c-26.0576 -151.288 -97.75 -290.536 -215.421 -390.583c-28.1729 -23.9531 -107.055 2.78809 -65.4844 38.1318c59.9385 50.9619 106.745 116.935 139.509 188.154
c63.792 138.67 74.1064 293.344 47.1689 442.43c-14.5039 80.2686 -39.9229 158.301 -72.293 233.084c-30.2471 69.8711 -65.4053 138.812 -122.499 190.662c-16.2041 14.7158 -0.0722656 33.3867 14.8887 39.624c19.627 8.17969 46.1865 6.60059 62.3486 -8.07715
c68.3828 -62.0957 110.073 -148.3 144.105 -232.69z" />
    <glyph glyph-name="asterisk" unicode="*" horiz-adv-x="456" 
d="M409.455 530.992c15.8447 -1.08008 40.1758 -14.6768 32.8574 -34.0127c-7.79395 -20.6357 -36.6055 -23.1367 -55.0391 -21.8828c-32.8232 2.23633 -65.707 3.45996 -98.5986 3.7959c21.3984 -36.3789 43.9609 -71.9941 70.0254 -105.335
c29.8047 -38.124 -55.334 -59.5684 -77.2393 -31.5469c-20.1064 25.7246 -38.2637 52.6699 -55.4424 80.2305c-15.4336 -26.5068 -30.5381 -53.2139 -45.2764 -80.1396c-10.4277 -19.0527 -34.7021 -24.7422 -55.0391 -21.8818
c-13.5898 1.91211 -43.251 15.0488 -32.873 34.0107c22.4307 40.9805 45.6582 81.5156 69.6602 121.586c-11.5908 -0.679688 -23.1816 -1.43555 -34.7617 -2.33496c-31.8789 -2.47461 -61.3779 -6.06348 -92.8154 2.35742
c-17.0537 4.56738 -30.8779 22.6533 -17.6172 38.4873c14.3789 17.1709 41.8301 17.7109 61.6348 12.4062c-8.05078 2.15332 8.08105 0.532227 10.7031 0.709961c7.15918 0.487305 14.3037 1.31836 21.4561 1.93066c14.6436 1.25391 29.3027 2.33105 43.9688 3.2373
c2.06641 0.128906 4.13281 0.227539 6.19922 0.348633c-24.7764 43.2666 -50.0664 86.2227 -79.2402 126.761c-12.8418 17.8516 18.2744 33.6367 30.4209 36.2207c20.8545 4.43945 43.6855 -0.275391 56.4326 -17.9902c21.958 -30.5156 41.5508 -62.5498 60.3877 -95.0596
c19.0381 29.4004 38.4502 58.5596 58.3301 87.4014c20.3184 29.4805 106.594 13.5859 79.252 -26.0801c-24.5947 -35.6836 -48.4834 -71.8164 -71.6992 -108.369c38.1357 -0.574219 76.2529 -2.25879 114.313 -4.85059z" />
    <glyph glyph-name="plus" unicode="+" horiz-adv-x="448" 
d="M351.229 283.492c16.0342 -0.404297 45.5479 -5.22754 46.3076 -26.959c0.709961 -20.3223 -27.8594 -30.5381 -44.3125 -30.126c-26.1514 0.657227 -52.3105 0.90625 -78.4775 0.962891c0.0341797 -55.7529 0.0722656 -111.506 0.15918 -167.259
c0.0644531 -39.1787 -90.5557 -41.6045 -90.6162 -3.16699c-0.0908203 56.6816 -0.128906 113.36 -0.15918 170.042c-29.2764 -0.245117 -58.5488 -0.513672 -87.8096 -0.582031c-16.0342 -0.0341797 -45.5596 5.55371 -46.3076 26.9639
c-0.72168 20.6318 27.8555 30.0879 44.3125 30.126c29.915 0.0683594 59.8369 0.351562 89.7666 0.59668c-0.0185547 60.1465 -0.0263672 120.293 -0.0263672 180.439c0 39.1895 90.6162 41.5889 90.6162 3.16602c0 -61.0801 0.0078125 -122.164 0.0263672 -183.244
c25.5127 -0.0683594 51.0225 -0.321289 76.5205 -0.959961z" />
    <glyph glyph-name="comma" unicode="," horiz-adv-x="173" 
d="M65.4658 106.895c14.4326 34.0742 104.098 26.0908 87.9121 -12.1279c-32.54 -76.8271 -70.623 -151.055 -114.052 -222.294c-11.4062 -18.709 -33.8633 -24.8594 -55.0391 -21.8818c-12.8643 1.80957 -44.1689 15.4707 -32.873 34.0059
c43.4326 71.2432 81.5156 145.471 114.052 222.298z" />
    <glyph glyph-name="hyphen" unicode="-" horiz-adv-x="371" 
d="M308.999 295.337c16.0342 -0.260742 45.5479 -5.33789 46.3076 -26.9639c0.713867 -20.4238 -27.8594 -30.3906 -44.3125 -30.126c-83.2871 1.34473 -166.393 2.75391 -249.672 0c-16.0264 -0.529297 -45.5703 5.91992 -46.3066 26.9639
c-0.733398 20.9795 27.8623 29.582 44.3115 30.126c83.2793 2.75391 166.385 1.34473 249.672 0z" />
    <glyph glyph-name="period" unicode="." horiz-adv-x="147" 
d="M40.1035 63.4092c13.9297 34.248 103.618 26.4883 87.9131 -12.123c-12.4639 -30.6436 -23.7305 -61.6914 -33.8252 -93.1963c-11.1943 -34.9434 -100.882 -28.3623 -87.9121 12.123c10.0908 31.5049 21.3604 62.5527 33.8242 93.1963z" />
    <glyph glyph-name="slash" unicode="/" horiz-adv-x="512" 
d="M372.408 716.533c15.1123 33.8057 104.738 25.5205 87.9111 -12.124c-113.84 -254.663 -220.789 -512.368 -320.719 -772.805c-13.2266 -34.4707 -102.929 -27.0166 -87.9111 12.124c99.9297 260.437 206.879 518.142 320.719 772.805z" />
    <glyph glyph-name="zero" unicode="0" horiz-adv-x="525" 
d="M393.946 654.382c43.4404 -42.416 68.8662 -101.486 84.3604 -159.233c31.7695 -118.4 33.6738 -255.083 -13.7109 -369.812c-24.7051 -59.8184 -65.6592 -112.771 -125.844 -139.766c-46.4326 -20.8242 -104.135 -25.7354 -152.407 -8.30371
c-33.8926 12.2412 -61.0527 35.2646 -82.4443 63.7471c-77.5176 103.213 -89.9814 251.6 -73.5693 375.712c15.0215 113.606 60.3691 251.173 183.224 284.798c1.68164 0.540039 3.33301 1.01562 4.88965 1.36328c1.37891 0.339844 2.86328 0.612305 4.39355 0.850586
c62.2168 12.5205 125.424 -4.75293 171.108 -49.3564zM392.722 184.796c28.0977 102.688 23.252 223.122 -10.7012 323.43c-15.4443 45.6309 -35.0371 85.9766 -67.3428 116.563c-3.29785 3.12109 -6.73926 6.09082 -10.2754 8.94336
c-0.0751953 -0.143555 -7.06055 4.82812 -8.31836 5.60254c-3.75586 2.3125 -7.74219 4.16406 -11.543 6.36621c-0.101562 0.0302734 -0.162109 0.0419922 -0.271484 0.0761719c-2.48242 0.717773 -4.89648 1.8252 -7.36719 2.61133
c-0.464844 0.147461 -0.9375 0.268555 -1.40625 0.404297c-0.25293 0.0869141 -0.986328 0.305664 -1.88965 0.543945c-1.41309 0.385742 -2.82617 0.763672 -4.23535 1.18262c1.14453 -0.339844 2.05469 -0.608398 2.84766 -0.838867
c-0.804688 0.185547 -1.60547 0.347656 -2.20605 0.412109c-3.95215 0.426758 -18.2939 0.105469 -3.8584 0.811523c-4.25781 -0.208008 -8.60645 -0.339844 -12.8828 -0.418945c-0.0605469 -0.0185547 -0.0947266 -0.0302734 -0.15918 -0.0488281
c-2.79199 -0.77832 -5.81836 -1.12207 -8.65234 -1.75684c-1.04297 -0.256836 -1.80566 -0.430664 -2.45215 -0.570312c-0.131836 -0.0683594 -0.222656 -0.117188 -0.380859 -0.192383c-2.47852 -1.18262 -5.29297 -2.14941 -7.8623 -3.13184
c-0.914062 -0.351562 -2.76953 -1.26953 -4.02734 -1.90039c-1.50391 -0.869141 -3.02637 -1.71582 -4.5 -2.6416c-4.92676 -3.09766 -9.51367 -6.59961 -14.1377 -10.1211c-0.479492 -0.366211 -0.849609 -0.641602 -1.16309 -0.87207
c-0.242188 -0.238281 -0.533203 -0.521484 -0.915039 -0.880859c-2.19531 -2.07812 -4.36816 -4.17871 -6.47656 -6.34766c-20.2881 -20.8701 -31.0557 -38.876 -42.8965 -64.2529c-26.7373 -57.3096 -39.1895 -120.645 -43.1113 -183.466
c-6.52051 -104.456 7.16406 -237.255 75.9961 -315.884c17.9189 -20.4658 39.3145 -34.9697 62.5801 -34.3271c13.8125 0.381836 32.1436 5.84082 46.7949 14.8818c5.91309 3.64941 11.5312 7.82031 16.8809 12.2598c-1.23535 -0.910156 6.52051 6.15137 8.0918 7.75684
c33.916 34.6602 52.4932 77.0195 65.8408 125.806z" />
    <glyph glyph-name="one" unicode="1" horiz-adv-x="459" 
d="M118.752 572.991c-17.6582 -8.65918 -48.2012 -6.58496 -62.3428 8.07812c-15.2637 15.8184 -0.408203 32.124 14.8887 39.623c48.4766 23.7637 96.7559 47.9316 144.877 72.417c6.49414 5.10059 15.4326 8.44043 25.0176 9.97852
c0.94043 0.155273 1.88867 0.291016 2.85254 0.404297c24.7617 3.01855 52.4326 -5.72363 52.4326 -26.9561c0 -212.451 0.0185547 -424.906 0.430664 -637.361c21.7764 0.294922 43.5527 0.547852 65.3291 0.706055c16.0303 0.113281 45.5596 -5.61426 46.3037 -26.9639
c0.72168 -20.6846 -27.8555 -30.0088 -44.3125 -30.126c-87.2051 -0.626953 -174.395 -2.83691 -261.604 -2.875c-16.0381 -0.0078125 -45.5596 5.53418 -46.3076 26.9629c-0.717773 20.6094 27.8555 30.1191 44.3125 30.127
c35.2227 0.0185547 70.4375 0.418945 105.656 0.894531c-0.370117 192.775 -0.412109 385.551 -0.416016 578.326c-28.9775 -14.5303 -58.0078 -28.9658 -87.1182 -43.2354z" />
    <glyph glyph-name="two" unicode="2" horiz-adv-x="469" 
d="M428.263 12.918c0.72168 -20.6738 -27.8555 -30.0332 -44.3086 -30.1318c-91.5576 -0.540039 -183.092 -2.80664 -274.656 -2.86328c-24.4668 -2.32324 -50.3506 6.6123 -48.9531 26.957c2.62207 38.1436 29.3066 65.9277 49.2891 96.666
c21.2852 32.7402 44.3125 64.2949 67.6045 95.6221c41.6377 56.002 84.7002 111.456 119.197 172.282c35.1436 61.9717 65.4287 131.571 62.123 204.242c-1.29199 28.4639 -7.06152 63.2822 -35.6084 77.0264c-20.2998 9.77344 -46.7275 4.11035 -68.3496 -6.70215
c-28.7891 -14.3906 -52.0391 -38.0186 -71.624 -63.1123c-20.5566 -26.3408 -38.4531 -55.1445 -44.5586 -88.418c-3.70605 -20.1895 -40.3457 -23.9482 -55.0381 -21.8818c-18.6367 2.61816 -36.6543 13.3857 -32.8721 34.0059
c7.97949 43.4814 36.4883 84.0762 65.1562 116.84c29.5332 33.7529 66.8906 62.7764 109.537 77.7266c71.2656 24.9805 179.851 19.3174 212.425 -62.6055c30.6592 -77.1064 1.44727 -170.806 -33.2168 -241.35c-35.3018 -71.8506 -82.7617 -136.762 -130.464 -200.721
c-23.957 -32.125 -48.0195 -64.1895 -70.5898 -97.3154c-11.1758 -16.3965 -21.3535 -33.5 -33.0166 -49.5488c-2.98438 -4.10645 -6.00293 -8.16406 -8.76855 -12.3164c73.4639 0.623047 146.921 2.12695 220.389 2.56152
c16.0303 0.0947266 45.5596 -5.59863 46.3037 -26.9639z" />
    <glyph glyph-name="three" unicode="3" horiz-adv-x="467" 
d="M65.9014 195.529c13.8047 0.483398 49.1338 -6.30566 46.2998 -26.9492c-6.85352 -50.0439 9.62988 -102.079 53.8145 -127.732c9.95898 -5.78027 14.7871 -7.84277 26.3936 -10.5742c-3.32129 0.857422 8.43262 -1.16797 10.0078 -1.35645
c0.547852 -0.0644531 3.43457 -0.234375 5.29688 -0.359375c1.37891 0.0341797 3.43457 0.0566406 3.46875 0.0566406c8.53125 0.332031 16.3936 1.16309 25.5029 4.06445c11.5342 3.67578 22.4111 8.93457 32.585 15.4219c49.8965 31.8115 86.3359 80.3555 86.918 141.269
c0.475586 49.7949 -21.1045 91.6709 -58.7607 121.132c-12.0674 9.44141 -32.3105 19.2686 -49.6934 24.8369c-26.4082 8.46289 -54.9668 11.5986 -83.7061 13.2949c-13.0723 0.770508 -29.7559 9.19922 -33.2842 22.5967c-3.8457 14.6133 9.46094 23.5186 20.6406 29.1973
c14.3418 7.28418 29.1748 13.5859 43.6406 20.6172c4.31055 2.09668 8.59863 4.24609 12.875 6.41113c0.59668 0.305664 5.36816 2.87891 5.81055 3.10156c1.05371 0.574219 2.11133 1.14062 3.15039 1.7373c9.33203 5.36523 18.5732 10.8438 27.5088 16.8662
c31.2256 21.0479 60.5361 47.5059 68.6396 88.0781c4.03516 20.2012 1.03906 43.7305 -6.52832 63.4482c-2.12305 5.52734 -4.59766 10.3213 -7.71875 15.3389c-0.332031 0.532227 -0.554688 0.910156 -0.740234 1.22754
c-0.329102 0.351562 -0.804688 0.887695 -1.49219 1.69238c-2.43652 2.86328 -4.82031 5.73047 -7.4043 8.47363c-3.25293 3.45312 -6.70215 6.66113 -10.1973 9.86133c-6.01465 5.50879 -2.07812 2.19531 -6.37402 5.15723
c-4.08789 2.82227 -8.31543 5.45215 -12.6719 7.83984c-1.62793 0.891602 -3.29785 1.76465 -4.97949 2.5957c-0.555664 0.166016 -4.67773 1.88867 -5.64453 2.20215c-10.0947 3.29102 -16.0371 4.67773 -23.0645 4.63965
c-10.5371 -0.0566406 -17.8213 -0.827148 -30.8213 -4.94922c-21.9434 -6.95898 -38.7031 -24.8975 -51.7188 -48.1289c-13.6465 -24.3574 -23.5566 -51.7373 -24.1162 -79.835c-0.782227 -39.3145 -91.3799 -41.377 -90.6172 -3.16602
c0.831055 41.6152 16.5293 81.4697 39.4277 115.756c24.8486 37.2061 59.0059 58.3213 101.751 69.8896c66.5693 18.0176 140.536 3.41895 190.856 -44.8496c35.5059 -34.0596 50.5234 -83.5107 41.4033 -131.941c-13 -69.0557 -68.2656 -109.613 -127.415 -141.508
c42.3066 -11.2207 82.1807 -30.1865 113.679 -61.3701c50.5469 -50.04 69.2217 -121.082 50.8643 -189.831c-18.6035 -69.6748 -84.3828 -128.503 -150.438 -153.071c-64.2422 -23.8965 -141.413 -20.9043 -198.409 19.8643
c-51.1396 36.583 -77.6123 96.291 -69.0508 158.829c2.89062 21.1113 25.0371 29.4531 44.3125 30.126z" />
    <glyph glyph-name="four" unicode="4" horiz-adv-x="393" 
d="M54.7422 104.513c-41.3848 27.0508 -31.8936 83.9814 -27.9043 126.284c4.71875 50.1123 11.0996 100.069 17.458 149.992c12.3887 97.2617 28.2979 194.724 35.2461 292.579c2.80371 39.4922 93.2842 40.7012 90.6172 3.16602
c-3.12402 -43.958 -8.99121 -87.7607 -14.5029 -131.469c-12.4941 -99.0791 -26.7861 -198.004 -36.8545 -297.37c-3.22266 -31.8301 -10.96 -70.8125 0.529297 -101.316c0.0605469 -0.162109 0.0830078 -0.267578 0.121094 -0.399414
c0.895508 -0.117188 1.66602 -0.230469 1.8623 -0.283203c6.12793 -0.313477 12.5244 0.335938 18.6143 0.634766c14.957 0.733398 29.8916 1.96094 44.792 3.45703c28.8867 2.89746 57.9131 7.22363 86.5166 13.3291
c-0.173828 170.084 -0.238281 340.168 -0.238281 510.256c0 39.1895 90.6162 41.5889 90.6162 3.16602c0 -231.579 0.0078125 -463.154 0.446289 -694.729c0.0751953 -39.1787 -90.541 -41.6084 -90.6162 -3.16699c-0.0791016 41.7363 -0.0869141 83.4727 -0.139648 125.209
c-31.8682 -5.63672 -64.1406 -9.39258 -96.2998 -12.2676c-38.7744 -3.46777 -85.8984 -9.53516 -120.264 12.9287z" />
    <glyph glyph-name="five" unicode="5" horiz-adv-x="459" 
d="M173.824 471.792c-3.33984 -11.7871 -8.50293 -24.2139 -9.50781 -36.4658c-0.956055 -11.7686 -1.17871 -8.62891 8.49707 -11.0391c26.2236 -6.53613 52.3447 -12.7285 77.877 -21.7236c84.2998 -29.7031 168.697 -87.6318 181.558 -182.79
c12.7852 -94.5869 -46.1182 -190.837 -130.108 -231.436c-73.8232 -35.6836 -170.084 -31.4971 -230.412 27.6934c-49.3076 48.3779 -57.5518 119.062 -46.252 184.305c3.64551 21.0479 24.4062 29.4316 44.3125 30.127c13.2646 0.464844 49.8555 -6.45703 46.3037 -26.9609
c-6.32031 -36.4922 -9.00293 -76.3389 4.49609 -111.618c9.12012 -23.832 19.1094 -36.7646 38.4189 -53.2676c0.0791016 -0.0683594 0.121094 -0.106445 0.196289 -0.170898c0.0605469 -0.0419922 0.0947266 -0.0605469 0.15918 -0.102539
c1.2207 -0.796875 2.35059 -1.72656 3.60156 -2.47852c4.33691 -2.61426 8.42871 -5.57617 13.083 -7.66211c12.8379 -5.75781 27.7012 -6.62695 41.4121 -4.64355c35.8955 5.19824 66.207 28.7051 87.5723 56.957c48.4463 64.0762 53.418 157.405 -5.24805 216.037
c-26.7754 26.7559 -60.8154 44.0176 -96.3027 56.2393c-21.4443 7.38574 -43.3906 13.1855 -65.4434 18.4336c-18.2363 4.33691 -38.5508 9.45996 -51.5586 24.123c-15.1836 17.1143 -14.0498 37.3535 -9.07422 58.2803c5.2666 22.1465 12.3916 43.9951 18.5986 65.9004
c11.1299 39.2656 22.2559 78.5312 33.3818 117.801c-16.665 -0.317383 -33.3301 -0.725586 -49.9951 -1.375c-16.0186 -0.626953 -45.5703 5.98438 -46.3037 26.96c-0.733398 21.0439 27.8662 29.4844 44.3125 30.127c106.133 4.14062 212.277 0.47168 318.444 1.89648
c16.0342 0.21582 45.5635 -5.68164 46.3076 -26.96c0.725586 -20.7568 -27.8555 -29.9033 -44.3125 -30.126c-58.9834 -0.790039 -117.959 -0.0341797 -176.927 0.105469c-15.6943 -55.3896 -31.3926 -110.776 -47.0869 -166.166z" />
    <glyph glyph-name="six" unicode="6" horiz-adv-x="437" 
d="M294.801 657.162c-64.7705 -80.6504 -114.362 -171.981 -147.114 -270.108c-11.1943 -33.5449 -21.7129 -69.6553 -28.9248 -106.544c14.833 7.22754 30.5537 12.793 47.1318 16.1934c54.9443 11.2695 112.374 -1.12207 156.808 -35.499
c37.3125 -28.8682 63.5771 -73.7783 63.8496 -121.748c0.283203 -49.8857 -24.8486 -95.9893 -62.8223 -127.211c-83.5332 -68.6846 -228.712 -50.6484 -279.463 48.7637c-23.4619 45.9521 -26.3896 101.021 -23.2012 151.549
c3.73242 59.1494 16.7666 117.838 34.6748 174.226c34.1914 107.663 89.1133 208.438 159.809 296.463c13.3594 16.6348 43.0664 18.6562 61.6318 12.4033c16.71 -5.62598 30.8477 -22.0186 17.6211 -38.4873zM187.129 241.629
c-32.5781 -9.73633 -57.6611 -35.3643 -77.8135 -62.6006c0.604492 -21.7158 3.17383 -43.1445 8.30078 -63.916c8.02051 -32.5098 26.0986 -67.1504 58.4014 -80.8379c13.3857 -5.6709 28.0635 -6.5625 37.8789 -5.1416c15.6787 2.27441 29.8047 8.89746 42.2529 19.4873
c55.4541 47.1689 51.0225 136.444 -7.72656 178.573c-6.57715 4.71484 -13.7969 8.75391 -21.3154 11.6973c-3.29785 1.29199 -6.72852 2.37988 -10.1699 3.30957c-0.959961 0.117188 -4.87402 0.873047 -6.01074 1.02051
c-1.37891 0.181641 -5.42188 0.400391 -6.21875 0.505859c-2.50879 -0.0263672 -5.00977 -0.125 -7.51074 -0.306641c4.26953 0.0605469 -15.8447 -3.51758 -10.0684 -1.79102z" />
    <glyph glyph-name="seven" unicode="7" horiz-adv-x="417" 
d="M112.802 -1.12207c10.8164 49.9492 22.8584 99.6367 34.9629 149.292c39.2236 161.021 80.2832 321.61 121.933 482.022c-57.8008 0.823242 -115.719 1.36328 -173.376 -1.20605c-16.0186 -0.709961 -45.5781 6.05664 -46.3076 26.9648
c-0.736328 21.1084 27.8672 29.3936 44.3135 30.127c75.5312 3.3623 151.512 1.40137 227.092 0.441406c19.4648 -0.245117 51.8047 -8.26953 44.9512 -34.6064c-5.47852 -21.0547 -10.9268 -42.1172 -16.3633 -63.1797
c-51.6494 -200.029 -105.569 -400.035 -149.293 -601.979c-4.36719 -20.167 -39.8018 -24.0244 -55.0391 -21.8818c-18.1387 2.5498 -37.3232 13.457 -32.873 34.0059z" />
    <glyph glyph-name="eight" unicode="8" horiz-adv-x="416" 
d="M384.259 90.5752c-13.6504 -60.9023 -70.96 -101.736 -129.368 -114.313c-62.1494 -13.3779 -131.741 4.06934 -176.941 49.7344c-47.3203 47.8037 -52.1982 116.647 -34.1846 178.539c14.9727 51.4492 40.9766 104.014 75.3828 145.659
c-19.0039 16.6797 -37.0029 34.3877 -52.5947 54.498c-20.3633 26.2646 -36.4922 54.627 -41.9814 87.8135c-5.43262 32.8506 3.77441 68.0732 18.8789 97.21c32.877 63.415 88.6299 103.516 160.919 107.444c67.3291 3.65723 136.482 -22.2754 165.282 -86.7588
c22.9102 -51.2949 22.8574 -111.517 16.3027 -166.234c-7.79004 -65.0049 -24.9082 -128.756 -48.8838 -189.605c38.2832 -45.6123 61.9375 -98.1768 47.1885 -163.986zM125.545 565.419c-13.0381 -29.9678 -16.2754 -61.6865 -3.29004 -92.2246
c12.4717 -29.3369 33.7002 -53.4072 56.4814 -75.2363c26.3027 -25.207 58.5752 -50.1953 89.8574 -76.8076c16.1055 50.5088 27.1826 102.763 29.8271 155.641c2.45996 49.1143 1.0127 131.831 -51.5322 156.913c-55.1367 26.3213 -100.995 -21.5088 -121.344 -68.2852z
M297.863 118.904c1.84766 65.0732 -42.5137 116.125 -88.5078 156.633c-9.33203 8.21387 -18.9248 16.1777 -28.6191 24.0547c-7.96777 -12.4863 -14.9268 -25.5391 -21.6328 -39.7178c-15.7275 -33.2471 -31.8184 -67.8125 -34.5918 -105.011
c-4.12598 -55.3408 26.8086 -121.937 86.8154 -125.873c16.9785 -1.11426 38.2793 6.42285 54.7402 20.4736c20.2656 17.2959 31.0479 43.1191 31.7959 69.4404z" />
    <glyph glyph-name="nine" unicode="9" horiz-adv-x="470" 
d="M291.45 76.8008c35.0947 51.0869 45.9365 119.504 53.4355 179.685c8.56152 68.7188 9.66113 138.205 6.09473 207.313c-0.759766 14.7041 -1.76855 29.3965 -2.92871 44.0742c-11.2129 -24.8711 -24.4512 -48.8008 -40.3076 -71.0762
c-40.7119 -57.1924 -107.587 -105.657 -181.131 -88.3691c-76.0977 17.8926 -90.5068 97.6621 -65.0576 162.157c24.1533 61.2119 70.3516 120.315 127.91 153.181c37.9092 21.6445 95.0449 37.7998 140.382 25.1436c11.8135 6.41895 26.2832 8.83301 38.9775 8.17578
c39.5527 -2.04395 48.9336 -29.6582 55.6016 -63.4756c11.8857 -60.2793 15.5879 -123.614 17.998 -184.901c2.48242 -63.0674 0.887695 -126.396 -6.92188 -189.062c-7.33301 -58.8584 -17.3525 -120.901 -44.2256 -174.402
c-25.917 -51.6006 -68.1709 -93.5332 -125.103 -108.438c-53.082 -13.8955 -118.801 0.755859 -145.659 52.4434c-19.1846 36.915 69.8867 50.875 86.8506 18.2285c4.375 -8.41406 9.97363 -14.9844 19.0488 -17.9346
c0.713867 -0.234375 5.3877 -0.0380859 5.9502 -0.204102c2.06641 0.388672 4.54492 0.849609 4.89258 0.955078c22.8457 7.04199 41.1123 27.4619 54.1924 46.5068zM294.196 635.865c-1.05078 0.109375 -2.2666 0.147461 -3.52832 0.155273
c1.14062 -0.408203 2.32324 -0.0302734 3.52832 -0.155273zM237.201 475.763c29.1777 46.5459 45.8369 100.351 60.7793 152.952c-1.03125 1.23535 -2.01758 2.51953 -2.90137 3.91699c-2.00195 3.16992 -0.774414 1.12207 -4.58691 3.38086
c-2.89355 0.00390625 -6.07129 -0.21875 -8.58008 -0.584961c-9.05957 -1.32227 -18.7881 -5.50879 -26.9561 -9.79688c-26.6846 -14.001 -48.752 -36.5371 -67.0225 -60.1162c-18.4707 -23.8359 -33.9189 -50.9961 -43.0244 -79.8262
c-7.52246 -23.8135 -10.5186 -58.5303 8.2959 -78.373c1.68848 -1.7832 3.89062 -3.85742 5.97266 -4.9375c0.895508 -0.155273 2.56152 -0.28418 4.37891 0.384766c8.80273 3.23438 16.9629 9.49805 24.2471 15.252c19.7021 15.5654 36.1143 36.5566 49.3975 57.748z" />
    <glyph glyph-name="colon" unicode=":" horiz-adv-x="152" 
d="M66.3574 341.478c-14.7344 -0.933594 -47.8633 6.40527 -46.3027 26.9658c1.88867 24.9277 6.36523 49.666 13.4033 73.6533c5.97266 20.3486 38.4297 23.7334 55.0381 21.8818c17.1074 -1.9082 38.7402 -14.0244 32.873 -34.0107
c-5.64453 -19.2305 -9.18457 -38.3779 -10.6992 -58.3643c-1.63184 -21.5049 -26.1064 -28.9736 -44.3125 -30.126zM97.6562 88.1465c17.4014 -1.93848 38.3428 -13.9551 32.8721 -34.0049c-5.42871 -19.8916 -7.8584 -39.749 -8.00195 -60.3701
c-0.268555 -39.2393 -90.8809 -41.5215 -90.6162 -3.16699c0.173828 25.6035 3.9668 50.9658 10.707 75.6592c5.56543 20.3867 38.7705 23.6963 55.0391 21.8828z" />
    <glyph glyph-name="semicolon" unicode=";" horiz-adv-x="188" 
d="M121.188 438.211c14.9004 0.944336 47.6436 -6.37793 46.3027 -26.9648c-1.26562 -19.5215 -2.53516 -39.0391 -3.80469 -58.5605c-1.39746 -21.501 -26.2988 -28.9893 -44.3125 -30.126c-14.8965 -0.94043 -47.6406 6.38184 -46.3027 26.9648
c1.26953 19.5215 2.53906 39.0391 3.80469 58.5605c1.39746 21.501 26.2988 28.9893 44.3125 30.126zM59.627 126.639c12.4824 34.6709 102.192 27.5391 87.9111 -12.123c-24.4932 -68.0234 -47.3125 -136.618 -68.4434 -205.761
c-10.7031 -35.0225 -100.371 -28.6455 -87.9111 12.123c21.1348 69.1426 43.9502 137.737 68.4434 205.761z" />
    <glyph glyph-name="less" unicode="&#x3c;" horiz-adv-x="533" 
d="M497.162 137.437c16.6836 -5.15332 31.2197 -22.2461 17.6191 -38.4844c-14.0391 -16.7637 -42.1934 -18.4072 -61.6348 -12.4043c-71.6357 22.1279 -141.318 52.0273 -210.498 80.7178c-38.7021 16.0488 -77.2422 32.498 -115.514 49.5557
c-21.3574 9.52051 -43.8516 18.3955 -63.8145 30.7119c-23.6924 14.6172 -12.4033 35.0068 7.60547 45.1514c126.149 63.9473 249.48 133.256 369.937 207.366c18.3389 11.2852 45.0947 13.5713 64.0752 2.2373c16.166 -9.65332 18.4102 -29.9111 1.40918 -40.3691
c-110.886 -68.2236 -224.28 -132.243 -339.816 -192.224c7.04199 -3.13965 13.5361 -5.93555 18.6367 -8.20996c29.4004 -13.1025 71.3369 -30.8516 105.74 -45.0908c67.7969 -28.0557 136.074 -57.2793 206.255 -78.958z" />
    <glyph glyph-name="equal" unicode="=" horiz-adv-x="603" 
d="M64.3213 325.595c-16.0264 -0.46875 -45.5713 5.875 -46.3076 26.96c-0.729492 20.9375 27.8594 29.6426 44.3125 30.126c158.534 4.66211 317.228 0.0566406 475.792 0c16.0342 -0.00390625 45.5596 -5.51953 46.3076 -26.96
c0.717773 -20.6016 -27.8555 -30.1299 -44.3125 -30.126c-158.568 0.0566406 -317.258 4.66211 -475.792 0zM538.118 218.34c16.0342 -0.00390625 45.5547 -5.52344 46.3066 -26.9639c0.717773 -20.6016 -27.8555 -30.1299 -44.3125 -30.126
c-158.568 0.0566406 -317.258 4.66211 -475.792 0c-16.0264 -0.46875 -45.5703 5.875 -46.3066 26.9639c-0.729492 20.9375 27.8594 29.6426 44.3125 30.126c158.534 4.66211 317.228 0.0566406 475.792 0z" />
    <glyph glyph-name="greater" unicode="&#x3e;" horiz-adv-x="532" 
d="M468.575 290.138c17.4844 -8.86328 17.5674 -30.3994 1.40527 -40.3623c-21.8486 -13.4834 -46.1943 -23.6084 -69.5801 -34.0508c-36.2314 -16.1816 -72.7803 -31.6602 -109.435 -46.8633c-69.1758 -28.6904 -138.862 -58.5898 -210.498 -80.7178
c-19.5479 -6.04102 -46.4932 -8.36035 -62.3496 8.07422c-13.9111 14.417 -2.02148 34.3994 14.8887 39.624c70.1807 21.6787 138.458 50.8984 206.255 78.958c36.9873 15.3047 73.8613 30.9004 110.433 47.1729c4.99805 2.22559 9.98926 4.47754 14.9727 6.7334
c-114.868 59.5039 -227.515 123.179 -337.709 190.976c-16.9258 10.416 -17.9424 28.8486 -1.40918 40.3682c17.3604 12.0898 45.9492 13.3896 64.0762 2.2373c123.357 -75.8936 249.771 -146.664 378.95 -212.149z" />
    <glyph glyph-name="question" unicode="?" horiz-adv-x="449" 
d="M312.438 717.979c80.2266 -11.5039 124.354 -82.042 120.141 -159.5c-8.17969 -150.416 -108.385 -278.934 -125.141 -427.921c-2.37598 -21.1416 -25.4678 -29.4688 -44.3125 -30.126c-14.168 -0.499023 -48.6387 6.22168 -46.3037 26.959
c7.97559 70.9404 31.3652 137.694 57.3281 203.772c22.6641 57.6875 46.5908 115.284 60.5059 175.869c7.28809 31.7432 12.1621 67.4795 3.18164 99.4111c-5.77246 20.5264 -19.1396 45.4883 -40.21 53.6562c-38.6836 14.999 -88.9736 -18.6865 -114.377 -46.625
c-23.5791 -25.9326 -65.3867 -93.6885 -28.9434 -124.234c16.9365 -14.1982 -0.597656 -33.6699 -14.8896 -39.624c-20.1895 -8.41797 -45.4756 -6.06836 -62.3486 8.07324c-59.5039 49.8779 -8.49609 147.25 34.46 189.708c51.793 51.1885 127.8 81.0654 200.909 70.5811z
M211.623 35.3145c0 39.1855 90.6162 41.585 90.6162 3.16602v-64.2266c0 -39.1895 -90.6162 -41.5889 -90.6162 -3.16602v64.2266z" />
    <glyph glyph-name="at" unicode="@" horiz-adv-x="851" 
d="M578.766 386.444c14.2129 -2.49316 33.2158 -10.1914 32.3691 -25.749c-2.875 -52.4736 -0.755859 -109.703 15.5732 -160.11c2.99219 -9.2373 6.56641 -19.1172 12.6113 -26.873c0.192383 -0.249023 0.966797 -1.18555 1.9873 -2.3457
c3.92871 3.13184 8.5 6.50586 9.52734 7.60547c3.39258 3.62305 6.60059 7.41602 9.70996 11.2812c43.5537 54.0869 71.9424 126.55 78.9053 195.352c8.15723 80.6084 -13.6084 164.769 -75.7119 219.811c-57.1318 50.6338 -137.782 71.3447 -212.796 63.1426
c-164.209 -17.957 -282.179 -164.107 -320.775 -315.849c-41.7324 -164.073 -10.5781 -371.711 125.931 -484.142c61.7412 -50.8486 143.026 -68.7002 220.711 -51.3965c77.2646 17.2129 143.003 66.9619 191.789 127.856c13.3369 16.6465 43.0889 18.6484 61.6318 12.4033
c16.7256 -5.63281 30.8213 -22.0068 17.6172 -38.4863c-73.1768 -91.3418 -178.513 -152.002 -295.429 -163.71c-116.859 -11.7002 -233.511 31.0791 -312.098 118.847c-137.933 154.043 -150.846 408.789 -61.7139 589.883
c88.3838 179.567 286.822 295.924 488.083 255.903c99.8955 -19.8652 196.693 -75.8594 239.068 -172.199c37.3652 -84.9492 31.0068 -181.339 -1.05371 -266.836c-23.7227 -63.2637 -69.5244 -155.569 -143.51 -169.612
c-59.2061 -11.2363 -108.181 23.5254 -123.89 79.7354c-0.385742 1.38281 -0.737305 2.77734 -1.11133 4.16797c-13.3105 -21.9131 -28.1699 -42.832 -45.2393 -62.1982c-25.3359 -28.7471 -56.5498 -54.8916 -94.8857 -63.3467
c-39.5186 -8.71582 -85.1123 -0.351562 -112.266 31.6641c-42.877 50.5469 -34.9355 129.708 -9.25195 186.239c30.3906 66.8867 90.9268 119.387 163.016 135.859c52.3936 11.9727 108.966 -0.125 141.2 -36.8965zM454.085 217.438
c22.4717 38.1543 40.0391 78.8906 56.6289 119.916c-4.41992 14.4736 -12.8975 28.6602 -26.2412 32.8271c-19.7627 6.16992 -45.5479 -9.58789 -60.8789 -20.25c-39.1406 -27.2168 -65.2588 -70.8193 -75.4482 -117.021
c-4.7832 -21.6973 -5.89355 -46.5527 -0.887695 -68.3145c2.28906 -9.95508 12.1533 -39.4502 23.5967 -41.332c-1.82812 0.883789 7.81348 5.4707 9.21094 6.38477c10.4502 6.83105 19.1055 15.5547 27.4893 24.7314c17.6094 19.2793 33.2803 40.5645 46.5303 63.0586z
M648.695 165.344c0.408203 0.305664 -0.487305 0.525391 -1.95312 0.665039c0.869141 -0.630859 1.58301 -0.944336 1.95312 -0.665039z" />
    <glyph glyph-name="A" unicode="A" horiz-adv-x="488" 
d="M27.3701 -27.3223c-18.6631 2.62598 -36.623 13.3848 -32.8711 34.0088c20.5566 113.055 54.9668 222.818 84.8213 333.613c14.1074 52.3604 28.4492 104.683 44.7852 156.404c0.291016 0.929688 0.589844 1.85938 0.884766 2.78906
c0.279297 1.33789 0.691406 2.62207 1.22363 3.85352c14.6553 46.2773 30.0889 93.1855 53.6562 135.737c12.1689 21.9736 25.335 43.9961 49.2197 54.6348c26.8086 11.9424 62.1338 9.33594 84.8779 -10c16.623 -14.1299 24.8857 -35.7705 32.6953 -55.5527
c8.93164 -22.6191 16.208 -45.8584 22.6006 -69.3125c25.2451 -92.6035 44.4375 -187.338 65.6777 -280.946c21.2969 -93.8359 41.6572 -188.083 54.96 -283.438c2.90137 -20.7939 -29.9072 -29.623 -44.3125 -30.126c-18.0781 -0.630859 -43.3877 6.04492 -46.3047 26.9639
c-15.9316 114.226 -41.7695 226.891 -67.7471 339.167c-10.6992 46.2588 -21.2705 92.5479 -31.917 138.817c-30.9727 -0.733398 -61.8965 -1.49609 -92.877 -1.70801c-13.8164 -44.9971 -26.2988 -90.3975 -38.5508 -135.84
c-30.1904 -111.967 -65.0088 -222.932 -85.7842 -337.184c-3.67188 -20.1895 -40.3721 -23.9453 -55.0381 -21.8828zM247.359 584.389c-8.20996 -19.5059 -15.3838 -39.4463 -22.1611 -59.5039c20.3223 0.287109 40.6367 0.744141 60.959 1.22754
c-4.94922 19.4385 -10.3896 38.752 -16.8271 57.7627c-3.07129 9.06738 -6.44141 18.0215 -9.9668 26.9189c-4.27344 -8.6748 -8.25586 -17.4932 -12.0039 -26.4053z" />
    <glyph glyph-name="A" unicode="&#xc5;" horiz-adv-x="488" 
d="M27.3701 -27.3223c-18.6631 2.62598 -36.623 13.3848 -32.8711 34.0088c20.5566 113.055 54.9668 222.818 84.8213 333.613c14.1074 52.3604 28.4492 104.683 44.7852 156.404c0.291016 0.929688 0.589844 1.85938 0.884766 2.78906
c0.279297 1.33789 0.691406 2.62207 1.22363 3.85352c14.6553 46.2773 30.0889 93.1855 53.6562 135.737c12.1689 21.9736 25.335 43.9961 49.2197 54.6348c26.8086 11.9424 62.1338 9.33594 84.8779 -10c16.623 -14.1299 24.8857 -35.7705 32.6953 -55.5527
c8.93164 -22.6191 16.208 -45.8584 22.6006 -69.3125c25.2451 -92.6035 44.4375 -187.338 65.6777 -280.946c21.2969 -93.8359 41.6572 -188.083 54.96 -283.438c2.90137 -20.7939 -29.9072 -29.623 -44.3125 -30.126c-18.0781 -0.630859 -43.3877 6.04492 -46.3047 26.9639
c-15.9316 114.226 -41.7695 226.891 -67.7471 339.167c-10.6992 46.2588 -21.2705 92.5479 -31.917 138.817c-30.9727 -0.733398 -61.8965 -1.49609 -92.877 -1.70801c-13.8164 -44.9971 -26.2988 -90.3975 -38.5508 -135.84
c-30.1904 -111.967 -65.0088 -222.932 -85.7842 -337.184c-3.67188 -20.1895 -40.3721 -23.9453 -55.0381 -21.8828zM247.359 584.389c-8.20996 -19.5059 -15.3838 -39.4463 -22.1611 -59.5039c20.3223 0.287109 40.6367 0.744141 60.959 1.22754
c-4.94922 19.4385 -10.3896 38.752 -16.8271 57.7627c-3.07129 9.06738 -6.44141 18.0215 -9.9668 26.9189c-4.27344 -8.6748 -8.25586 -17.4932 -12.0039 -26.4053z" />
    <glyph glyph-name="A" unicode="&#xc4;" horiz-adv-x="488" 
d="M27.3701 -27.3223c-18.6631 2.62598 -36.623 13.3848 -32.8711 34.0088c20.5566 113.055 54.9668 222.818 84.8213 333.613c14.1074 52.3604 28.4492 104.683 44.7852 156.404c0.291016 0.929688 0.589844 1.85938 0.884766 2.78906
c0.279297 1.33789 0.691406 2.62207 1.22363 3.85352c14.6553 46.2773 30.0889 93.1855 53.6562 135.737c12.1689 21.9736 25.335 43.9961 49.2197 54.6348c26.8086 11.9424 62.1338 9.33594 84.8779 -10c16.623 -14.1299 24.8857 -35.7705 32.6953 -55.5527
c8.93164 -22.6191 16.208 -45.8584 22.6006 -69.3125c25.2451 -92.6035 44.4375 -187.338 65.6777 -280.946c21.2969 -93.8359 41.6572 -188.083 54.96 -283.438c2.90137 -20.7939 -29.9072 -29.623 -44.3125 -30.126c-18.0781 -0.630859 -43.3877 6.04492 -46.3047 26.9639
c-15.9316 114.226 -41.7695 226.891 -67.7471 339.167c-10.6992 46.2588 -21.2705 92.5479 -31.917 138.817c-30.9727 -0.733398 -61.8965 -1.49609 -92.877 -1.70801c-13.8164 -44.9971 -26.2988 -90.3975 -38.5508 -135.84
c-30.1904 -111.967 -65.0088 -222.932 -85.7842 -337.184c-3.67188 -20.1895 -40.3721 -23.9453 -55.0381 -21.8828zM247.359 584.389c-8.20996 -19.5059 -15.3838 -39.4463 -22.1611 -59.5039c20.3223 0.287109 40.6367 0.744141 60.959 1.22754
c-4.94922 19.4385 -10.3896 38.752 -16.8271 57.7627c-3.07129 9.06738 -6.44141 18.0215 -9.9668 26.9189c-4.27344 -8.6748 -8.25586 -17.4932 -12.0039 -26.4053z" />
    <glyph glyph-name="A" unicode="&#xc3;" horiz-adv-x="488" 
d="M27.3701 -27.3223c-18.6631 2.62598 -36.623 13.3848 -32.8711 34.0088c20.5566 113.055 54.9668 222.818 84.8213 333.613c14.1074 52.3604 28.4492 104.683 44.7852 156.404c0.291016 0.929688 0.589844 1.85938 0.884766 2.78906
c0.279297 1.33789 0.691406 2.62207 1.22363 3.85352c14.6553 46.2773 30.0889 93.1855 53.6562 135.737c12.1689 21.9736 25.335 43.9961 49.2197 54.6348c26.8086 11.9424 62.1338 9.33594 84.8779 -10c16.623 -14.1299 24.8857 -35.7705 32.6953 -55.5527
c8.93164 -22.6191 16.208 -45.8584 22.6006 -69.3125c25.2451 -92.6035 44.4375 -187.338 65.6777 -280.946c21.2969 -93.8359 41.6572 -188.083 54.96 -283.438c2.90137 -20.7939 -29.9072 -29.623 -44.3125 -30.126c-18.0781 -0.630859 -43.3877 6.04492 -46.3047 26.9639
c-15.9316 114.226 -41.7695 226.891 -67.7471 339.167c-10.6992 46.2588 -21.2705 92.5479 -31.917 138.817c-30.9727 -0.733398 -61.8965 -1.49609 -92.877 -1.70801c-13.8164 -44.9971 -26.2988 -90.3975 -38.5508 -135.84
c-30.1904 -111.967 -65.0088 -222.932 -85.7842 -337.184c-3.67188 -20.1895 -40.3721 -23.9453 -55.0381 -21.8828zM247.359 584.389c-8.20996 -19.5059 -15.3838 -39.4463 -22.1611 -59.5039c20.3223 0.287109 40.6367 0.744141 60.959 1.22754
c-4.94922 19.4385 -10.3896 38.752 -16.8271 57.7627c-3.07129 9.06738 -6.44141 18.0215 -9.9668 26.9189c-4.27344 -8.6748 -8.25586 -17.4932 -12.0039 -26.4053z" />
    <glyph glyph-name="A" unicode="&#xc2;" horiz-adv-x="488" 
d="M27.3701 -27.3223c-18.6631 2.62598 -36.623 13.3848 -32.8711 34.0088c20.5566 113.055 54.9668 222.818 84.8213 333.613c14.1074 52.3604 28.4492 104.683 44.7852 156.404c0.291016 0.929688 0.589844 1.85938 0.884766 2.78906
c0.279297 1.33789 0.691406 2.62207 1.22363 3.85352c14.6553 46.2773 30.0889 93.1855 53.6562 135.737c12.1689 21.9736 25.335 43.9961 49.2197 54.6348c26.8086 11.9424 62.1338 9.33594 84.8779 -10c16.623 -14.1299 24.8857 -35.7705 32.6953 -55.5527
c8.93164 -22.6191 16.208 -45.8584 22.6006 -69.3125c25.2451 -92.6035 44.4375 -187.338 65.6777 -280.946c21.2969 -93.8359 41.6572 -188.083 54.96 -283.438c2.90137 -20.7939 -29.9072 -29.623 -44.3125 -30.126c-18.0781 -0.630859 -43.3877 6.04492 -46.3047 26.9639
c-15.9316 114.226 -41.7695 226.891 -67.7471 339.167c-10.6992 46.2588 -21.2705 92.5479 -31.917 138.817c-30.9727 -0.733398 -61.8965 -1.49609 -92.877 -1.70801c-13.8164 -44.9971 -26.2988 -90.3975 -38.5508 -135.84
c-30.1904 -111.967 -65.0088 -222.932 -85.7842 -337.184c-3.67188 -20.1895 -40.3721 -23.9453 -55.0381 -21.8828zM247.359 584.389c-8.20996 -19.5059 -15.3838 -39.4463 -22.1611 -59.5039c20.3223 0.287109 40.6367 0.744141 60.959 1.22754
c-4.94922 19.4385 -10.3896 38.752 -16.8271 57.7627c-3.07129 9.06738 -6.44141 18.0215 -9.9668 26.9189c-4.27344 -8.6748 -8.25586 -17.4932 -12.0039 -26.4053z" />
    <glyph glyph-name="A" unicode="&#xc1;" horiz-adv-x="488" 
d="M27.3701 -27.3223c-18.6631 2.62598 -36.623 13.3848 -32.8711 34.0088c20.5566 113.055 54.9668 222.818 84.8213 333.613c14.1074 52.3604 28.4492 104.683 44.7852 156.404c0.291016 0.929688 0.589844 1.85938 0.884766 2.78906
c0.279297 1.33789 0.691406 2.62207 1.22363 3.85352c14.6553 46.2773 30.0889 93.1855 53.6562 135.737c12.1689 21.9736 25.335 43.9961 49.2197 54.6348c26.8086 11.9424 62.1338 9.33594 84.8779 -10c16.623 -14.1299 24.8857 -35.7705 32.6953 -55.5527
c8.93164 -22.6191 16.208 -45.8584 22.6006 -69.3125c25.2451 -92.6035 44.4375 -187.338 65.6777 -280.946c21.2969 -93.8359 41.6572 -188.083 54.96 -283.438c2.90137 -20.7939 -29.9072 -29.623 -44.3125 -30.126c-18.0781 -0.630859 -43.3877 6.04492 -46.3047 26.9639
c-15.9316 114.226 -41.7695 226.891 -67.7471 339.167c-10.6992 46.2588 -21.2705 92.5479 -31.917 138.817c-30.9727 -0.733398 -61.8965 -1.49609 -92.877 -1.70801c-13.8164 -44.9971 -26.2988 -90.3975 -38.5508 -135.84
c-30.1904 -111.967 -65.0088 -222.932 -85.7842 -337.184c-3.67188 -20.1895 -40.3721 -23.9453 -55.0381 -21.8828zM247.359 584.389c-8.20996 -19.5059 -15.3838 -39.4463 -22.1611 -59.5039c20.3223 0.287109 40.6367 0.744141 60.959 1.22754
c-4.94922 19.4385 -10.3896 38.752 -16.8271 57.7627c-3.07129 9.06738 -6.44141 18.0215 -9.9668 26.9189c-4.27344 -8.6748 -8.25586 -17.4932 -12.0039 -26.4053z" />
    <glyph glyph-name="B" unicode="B" horiz-adv-x="458" 
d="M41.2998 -25.0596c-6.87598 4.54492 -11.2988 11.0322 -11.2988 19.5098c0 224.986 0.0078125 449.97 0.446289 674.953c0.0449219 22.2334 29.2119 32.6045 54.4414 30.4209c46.3828 1.625 92.3955 3.41211 138.869 0.642578
c51.0527 -3.04102 109.703 -10.6006 150.752 -43.8252c36.6738 -29.6846 35.6045 -80.4727 3.90625 -113.682c-23.0576 -24.1572 -54.5781 -39.1973 -87.5645 -49.0352c36.2998 -13.8086 70.3252 -34.3271 96.2236 -63.2559
c45.8389 -51.2002 61.3213 -120.214 60.8301 -187.448c-0.65332 -89.0635 -21.9121 -177.243 -100.325 -229.464c-81.3457 -54.1699 -186.908 -56.3428 -280.888 -49.2441c-8.01367 0.608398 -18.2178 4.35645 -25.3926 10.4277zM206.878 455.456
c6.55469 -1.59766 2.14551 -0.408203 0 0zM354.955 287.007c-6.09766 53.3652 -26.2217 99.3789 -66.5068 132.463c-0.543945 0.446289 -0.974609 0.805664 -1.33398 1.10742c-0.418945 0.283203 -0.917969 0.619141 -1.60156 1.09473
c-2.61035 1.80957 -5.22852 3.59668 -7.90723 5.30469c-3.98242 2.53906 -8.05469 4.93066 -12.1953 7.20117c-4.44336 2.43262 -8.97656 4.66895 -13.5557 6.83398c-0.313477 0.121094 -0.604492 0.234375 -0.99707 0.385742
c-2.39941 0.933594 -4.77246 1.91602 -7.17871 2.82227c-9.97754 3.7666 -20.167 6.94434 -30.4814 9.65332c-2.14258 0.5625 -4.2959 1.08008 -6.44922 1.60547c-0.0117188 0.00390625 -0.0234375 0.0078125 -0.0351562 0.0078125
c-4.79102 0.857422 -9.54395 1.92676 -14.3379 2.77637c-23.707 4.19727 -47.6641 5.90527 -71.5449 8.3457c-0.139648 -149.339 -0.204102 -298.682 -0.204102 -448.021c69.5537 -2.51953 144.839 5.84473 191.634 59.9805
c47.1572 54.5547 50.5049 140.063 42.6953 208.438zM198.613 644.698c-1.16406 0.0449219 -1.59766 0.0605469 0 0zM179.773 645.187c-19.6123 0.279297 -39.1709 -0.304688 -58.7266 -1.06445c-0.0683594 -37.7275 -0.0830078 -75.4551 -0.12793 -113.183
c0.499023 -0.0644531 0.998047 -0.125 1.49707 -0.197266c0.646484 -0.0908203 1.30371 -0.121094 1.96094 -0.155273c8.48535 0.21875 17.0537 -0.321289 25.5508 -0.0761719c11.3379 0.329102 22.668 1.02832 33.9639 2.05566
c3.05273 0.279297 6.09766 0.619141 9.15039 0.90625c0.162109 0.0146484 0.263672 0.0224609 0.415039 0.0371094c0.211914 0.0302734 0.389648 0.0605469 0.672852 0.0986328c6.3584 0.891602 12.7051 1.80176 19.0332 2.89746
c11.4697 1.9873 22.876 4.38672 34.1348 7.36426c2.44434 0.646484 4.88086 1.33398 7.31055 2.04395c0.532227 0.188477 1.16309 0.415039 1.97559 0.706055c4.62402 1.65137 9.24805 3.28711 13.7891 5.16113c14.957 6.17383 25.7021 11.5576 35.6426 25.3398
c-0.970703 -0.974609 3.51758 7.22754 4.36426 9.30176c0.505859 1.23926 0.898438 2.65234 1.24609 4.03906c0.113281 0.657227 0.385742 2.11523 0.423828 2.56445c0.34375 4.09961 0.196289 8.05176 -0.242188 12.1279
c-0.0341797 0.291016 -0.173828 0.959961 -0.329102 1.64746c-0.513672 1.20898 -1.49609 3.8877 -1.52637 3.94434c-0.963867 1.71484 -1.8252 3.4834 -2.7998 5.19824c-0.139648 0.139648 -0.25293 0.25293 -0.415039 0.422852
c-1.61719 1.69238 -3.26855 3.30176 -4.96094 4.87695c-0.105469 -0.113281 -4.72949 3.43848 -6.38379 4.40234c-2.01367 1.16699 -4.0957 2.17578 -6.14746 3.26758c-4.70703 1.83203 -9.42578 3.54395 -14.2617 5.01758
c-1.93457 0.589844 -11.5537 3.00391 -10.5488 2.89453c-8.9541 1.8623 -17.9951 3.31348 -27.0625 4.48047c-11.2588 1.44727 -22.5557 2.37305 -33.875 3.15527c-0.993164 0.0683594 -2.94238 0.155273 -4.33691 0.21582
c-1.47754 0.0566406 -2.95117 0.117188 -4.42871 0.166016c-4.9873 0.162109 -9.9707 0.271484 -14.958 0.342773z" />
    <glyph glyph-name="C" unicode="C" horiz-adv-x="479" 
d="M153.959 -16.4004c-40.3643 21.1494 -71.3047 57.9131 -93.8252 96.8115c-56.0176 96.7744 -56.6865 225.73 -38.5898 333.118c10.4316 61.9072 29.0459 122.213 61.1025 176.507c31.4258 53.2285 72.7988 99.1465 135.258 113.82
c59.3643 13.9443 130.206 0.335938 173.019 -45.2461c38.2871 -40.7578 55.4316 -96.7295 66.3994 -150.238c4.20508 -20.5186 -31.0098 -29.6611 -44.3125 -30.126c-19.083 -0.665039 -42.0537 6.20703 -46.3076 26.9639
c-9.17285 44.7627 -25.041 100.006 -61.9072 130.445c-33.9189 28.0068 -73.3613 16.5068 -101.7 -13.8574c-67.7627 -72.6025 -93.9482 -182.774 -99.0713 -279.179c-4.68066 -88.085 2.01074 -182.317 51.5488 -257.928
c16.6914 -25.4795 42.5557 -52.1748 68.5713 -61.7939c7.50684 -2.77344 6.52832 -2.5127 11.8369 -3.41602c-0.208008 0.0341797 9.50195 -0.717773 9.57715 -0.933594c4.28809 0.0146484 8.60254 0.301758 12.8604 0.615234
c1.59082 0.117188 2.74316 0.192383 3.58203 0.234375c0.740234 0.139648 1.70703 0.30957 2.97656 0.521484c4.34473 0.725586 8.66699 1.55273 12.9551 2.56543c-0.589844 -0.139648 6.42969 1.89258 7.8877 2.22168c2.76562 1.13379 9.91016 4.07324 13.9941 6.03418
c-1.40137 -0.543945 7.79785 5.07031 8.77246 5.75781c2.56934 1.81348 5.11914 3.72852 7.53711 5.75781c0.0908203 0.275391 5.39551 5.41016 5.2373 5.23633c2.52344 2.79199 5.05469 5.54199 7.43066 8.46582c8.56445 10.541 14.4316 20.9531 20.1895 33.6621
c16.3926 36.1826 24.6396 75.8369 30.9414 114.849c3.4043 21.0703 24.6104 29.4385 44.3125 30.126c13.4424 0.472656 49.6289 -6.40723 46.3076 -26.96c-8.3457 -51.6797 -17.7686 -106.145 -44.9287 -151.791c-26.0273 -43.7422 -64.5752 -71.6846 -113.479 -85.4258
c-52.2314 -14.6738 -109.756 -12.1846 -158.176 13.1816z" />
    <glyph glyph-name="D" unicode="D" horiz-adv-x="458" 
d="M372.48 79.959c-68.5264 -90.5596 -181.928 -118.204 -290.153 -115.673c-24.2773 -2.76953 -51.0713 5.74609 -51.8154 26.2197c-0.0683594 0.766602 -0.0986328 1.54492 -0.0644531 2.33789c-0.43457 223.215 -0.446289 446.426 -0.446289 669.641
c0 1.70801 0.230469 3.32129 0.55957 4.88965c-0.0751953 0.604492 -0.204102 1.18262 -0.226562 1.80566c-0.755859 21.6895 27.9229 28.543 44.3125 30.126c111.812 10.7939 240.22 -5.16113 311.273 -102.31c60.1768 -82.2744 64.7441 -196.209 58.4805 -294.393
c-5.02148 -78.708 -23.5684 -158.742 -71.9199 -222.645zM282.401 92.7129c8.43262 9.66016 16.3047 19.9961 23.0254 30.9219c35.7402 58.167 48.0869 135.217 49.5947 205.134c1.83203 85.0557 -1.20898 186.587 -60.1582 254.278
c-45.0986 51.7861 -109.729 63.4492 -174.239 61.9414c0 -207.94 0.0380859 -415.885 0.412109 -623.825c7.20117 0.370117 14.3828 0.956055 21.5684 1.61328c-5.84863 -0.487305 8.75391 1.16699 11.7881 1.67676c6.51758 1.09961 13.0049 2.38379 19.4463 3.87598
c5.60645 1.2959 11.1338 2.84863 16.6875 4.35254c-12.3281 -3.33594 0.641602 0.298828 3.12793 1.16406c2.76953 0.963867 5.52344 1.96875 8.2627 3.01855c6.45703 2.47852 12.8232 5.19824 19.0645 8.17871c1.80176 0.861328 3.58496 1.75684 5.37598 2.64453
c0.143555 0.0722656 0.226562 0.110352 0.355469 0.174805c0.351562 0.21582 0.755859 0.458008 1.26562 0.760742c9.77051 5.78809 19.2607 11.875 28.2373 18.8457c8.8252 6.85742 4.34473 2.90918 12.4717 10.7861c4.77148 4.62402 9.34668 9.45215 13.7139 14.458z" />
    <glyph glyph-name="E" unicode="E" horiz-adv-x="385" 
d="M349.221 635.502c-76.0371 2.93164 -152.104 2.86328 -228.187 3.38086c-0.0605469 -35.1475 -0.0751953 -70.291 -0.120117 -105.438c43.3643 0.513672 86.6416 2.04004 130.082 -0.592773c15.875 -0.963867 40.1416 -14.7617 32.873 -34.0107
c-7.82422 -20.7227 -36.5791 -23.001 -55.0391 -21.8828c-35.9404 2.17969 -71.9717 0.460938 -107.98 -0.339844c-0.151367 -151.685 -0.219727 -303.369 -0.219727 -455.054c75.542 0.388672 151.058 2.91211 226.592 0.0673828
c16.0303 -0.604492 45.5439 -5.08496 46.3066 -26.9639c0.703125 -20.1826 -27.8662 -30.7461 -44.3125 -30.127c-89.0146 3.35156 -178.011 -0.762695 -267.044 -0.0224609c-24.6895 -2.92383 -52.1592 5.83008 -52.1592 26.9873
c0 223.698 0.0117188 447.4 0.442383 671.099c-0.234375 1.16016 -0.396484 2.36523 -0.441406 3.63867c-0.21582 6.12402 2.22461 11.2734 6.14258 15.5127c10.6543 12.6982 34.3164 17.6357 53.9814 14.4619c85.709 -0.820312 171.418 -0.321289 257.089 -3.62695
c16.0303 -0.619141 45.5439 -5.07324 46.3066 -26.9629c0.703125 -20.1709 -27.8662 -30.7607 -44.3125 -30.126z" />
    <glyph glyph-name="E" unicode="&#xcb;" horiz-adv-x="385" 
d="M349.221 635.502c-76.0371 2.93164 -152.104 2.86328 -228.187 3.38086c-0.0605469 -35.1475 -0.0751953 -70.291 -0.120117 -105.438c43.3643 0.513672 86.6416 2.04004 130.082 -0.592773c15.875 -0.963867 40.1416 -14.7617 32.873 -34.0107
c-7.82422 -20.7227 -36.5791 -23.001 -55.0391 -21.8828c-35.9404 2.17969 -71.9717 0.460938 -107.98 -0.339844c-0.151367 -151.685 -0.219727 -303.369 -0.219727 -455.054c75.542 0.388672 151.058 2.91211 226.592 0.0673828
c16.0303 -0.604492 45.5439 -5.08496 46.3066 -26.9639c0.703125 -20.1826 -27.8662 -30.7461 -44.3125 -30.127c-89.0146 3.35156 -178.011 -0.762695 -267.044 -0.0224609c-24.6895 -2.92383 -52.1592 5.83008 -52.1592 26.9873
c0 223.698 0.0117188 447.4 0.442383 671.099c-0.234375 1.16016 -0.396484 2.36523 -0.441406 3.63867c-0.21582 6.12402 2.22461 11.2734 6.14258 15.5127c10.6543 12.6982 34.3164 17.6357 53.9814 14.4619c85.709 -0.820312 171.418 -0.321289 257.089 -3.62695
c16.0303 -0.619141 45.5439 -5.07324 46.3066 -26.9629c0.703125 -20.1709 -27.8662 -30.7607 -44.3125 -30.126z" />
    <glyph glyph-name="E" unicode="&#xca;" horiz-adv-x="385" 
d="M349.221 635.502c-76.0371 2.93164 -152.104 2.86328 -228.187 3.38086c-0.0605469 -35.1475 -0.0751953 -70.291 -0.120117 -105.438c43.3643 0.513672 86.6416 2.04004 130.082 -0.592773c15.875 -0.963867 40.1416 -14.7617 32.873 -34.0107
c-7.82422 -20.7227 -36.5791 -23.001 -55.0391 -21.8828c-35.9404 2.17969 -71.9717 0.460938 -107.98 -0.339844c-0.151367 -151.685 -0.219727 -303.369 -0.219727 -455.054c75.542 0.388672 151.058 2.91211 226.592 0.0673828
c16.0303 -0.604492 45.5439 -5.08496 46.3066 -26.9639c0.703125 -20.1826 -27.8662 -30.7461 -44.3125 -30.127c-89.0146 3.35156 -178.011 -0.762695 -267.044 -0.0224609c-24.6895 -2.92383 -52.1592 5.83008 -52.1592 26.9873
c0 223.698 0.0117188 447.4 0.442383 671.099c-0.234375 1.16016 -0.396484 2.36523 -0.441406 3.63867c-0.21582 6.12402 2.22461 11.2734 6.14258 15.5127c10.6543 12.6982 34.3164 17.6357 53.9814 14.4619c85.709 -0.820312 171.418 -0.321289 257.089 -3.62695
c16.0303 -0.619141 45.5439 -5.07324 46.3066 -26.9629c0.703125 -20.1709 -27.8662 -30.7607 -44.3125 -30.126z" />
    <glyph glyph-name="E" unicode="&#xc9;" horiz-adv-x="385" 
d="M349.221 635.502c-76.0371 2.93164 -152.104 2.86328 -228.187 3.38086c-0.0605469 -35.1475 -0.0751953 -70.291 -0.120117 -105.438c43.3643 0.513672 86.6416 2.04004 130.082 -0.592773c15.875 -0.963867 40.1416 -14.7617 32.873 -34.0107
c-7.82422 -20.7227 -36.5791 -23.001 -55.0391 -21.8828c-35.9404 2.17969 -71.9717 0.460938 -107.98 -0.339844c-0.151367 -151.685 -0.219727 -303.369 -0.219727 -455.054c75.542 0.388672 151.058 2.91211 226.592 0.0673828
c16.0303 -0.604492 45.5439 -5.08496 46.3066 -26.9639c0.703125 -20.1826 -27.8662 -30.7461 -44.3125 -30.127c-89.0146 3.35156 -178.011 -0.762695 -267.044 -0.0224609c-24.6895 -2.92383 -52.1592 5.83008 -52.1592 26.9873
c0 223.698 0.0117188 447.4 0.442383 671.099c-0.234375 1.16016 -0.396484 2.36523 -0.441406 3.63867c-0.21582 6.12402 2.22461 11.2734 6.14258 15.5127c10.6543 12.6982 34.3164 17.6357 53.9814 14.4619c85.709 -0.820312 171.418 -0.321289 257.089 -3.62695
c16.0303 -0.619141 45.5439 -5.07324 46.3066 -26.9629c0.703125 -20.1709 -27.8662 -30.7607 -44.3125 -30.126z" />
    <glyph glyph-name="F" unicode="F" horiz-adv-x="380" 
d="M349.217 639.3c-76.1992 -2.86719 -152.381 -0.271484 -228.58 0.0800781c0 -38.2607 0.0146484 -76.5176 0.0185547 -114.778c39.4395 0.374023 78.8672 0.706055 118.265 3.18457c16.0039 1.00488 45.5859 -6.27148 46.3076 -26.9639
c0.744141 -21.3154 -27.8818 -29.0908 -44.3125 -30.126c-40.0586 -2.51953 -80.1475 -2.81836 -120.252 -3.2041c0.0302734 -157.673 0.102539 -315.342 0.412109 -473.015c0.0791016 -39.1787 -90.541 -41.6084 -90.6162 -3.16699
c-0.325195 167.439 -0.393555 334.883 -0.416016 502.326c-0.00390625 0.0830078 -0.0263672 0.158203 -0.0302734 0.241211c-0.0078125 0.196289 0.0302734 0.374023 0.0302734 0.566406c-0.0078125 57.2754 -0.0302734 114.547 -0.0302734 171.818
c-0.151367 4.28027 1.00098 8.04297 2.98438 11.3643c8.31543 14.8818 32.7363 21.3047 53.7236 18.8154c86.8496 0.495117 173.665 -3.32031 260.5 -0.0527344c16.0225 0.600586 45.5742 -5.97363 46.3076 -26.9648c0.733398 -21.0283 -27.8623 -29.5059 -44.3115 -30.125z
" />
    <glyph glyph-name="G" unicode="G" horiz-adv-x="466" 
d="M347.692 -4.18555c-80.3633 -58.0537 -191.444 -39.3115 -254.425 34.6855c-71.0918 83.54 -86.1514 196.152 -81.4893 302.467c2.74316 62.5527 13.4844 125.79 35.2764 184.622c21.1875 57.2031 53.0518 115.578 101.464 154.088
c50.4824 40.1572 126.24 48.0762 185.435 23.8818c60.1318 -24.5762 92.1846 -79.6562 112.068 -138.764c13.7598 -40.8936 -75.3271 -52.4844 -86.8506 -18.2285c-14.5986 43.3945 -37.6182 103.126 -88.7881 112.269c-45.4844 8.12695 -81.0469 -38.498 -102.771 -75.7041
c-53.4404 -91.5234 -69.7842 -199.421 -65.1562 -304.043c3.60449 -81.4697 22.9023 -168.95 84.9229 -226.8c12.834 -11.9688 25.6641 -20.2617 40.667 -24.5078c9.0293 -2.55762 4.19727 -0.902344 2.49316 -0.59668
c0.121094 -0.0185547 9.06738 -0.691406 9.22266 -0.921875c1.68457 0.0302734 3.36621 0.0644531 5.04785 0.181641c0.929688 0.147461 5.14941 0.657227 6.59668 1.04297c2.44434 0.646484 15.5391 5.21387 4.89648 1.02441
c3.01074 1.18652 6.05957 2.35352 9.08594 3.50195c0.84668 0.321289 5.09277 2.45996 5.86719 2.77734c1.8252 1.07715 3.63477 2.18457 5.40625 3.34082c13.0264 8.49316 16.124 11.4736 26.9629 24.2959c41.1582 48.6875 55.417 116.466 59.9053 181.274
c0.101562 3.70215 0.188477 7.4043 0.293945 11.1064c0.158203 5.65527 0.203125 11.3604 0.293945 17.0732c-26.1592 -0.0449219 -52.3184 -0.411133 -78.4893 -0.433594c-16.0303 -0.0117188 -45.5557 5.53809 -46.3037 26.9639
c-0.717773 20.6172 27.8555 30.1152 44.3125 30.127c39.4844 0.0341797 78.9346 0.891602 118.407 0.113281c25.1768 3.61523 54.0566 -5.06641 53.9658 -26.752c0 -0.0986328 -0.00390625 -0.200195 -0.00390625 -0.298828
c0 -0.0078125 0.00390625 -0.015625 0.00390625 -0.0234375c0 -0.0224609 -0.00390625 -0.0449219 -0.00390625 -0.0673828c-0.00390625 -0.347656 -0.0117188 -0.699219 -0.0117188 -1.04688c0.329102 0.6875 0.189453 -1.89648 -0.0488281 -5.09668
c-0.166016 -14.8896 -0.6875 -30.2324 -1.73047 -45.8018c-0.869141 -31.4707 -1.63574 -62.9453 -2.30078 -94.4199c-1.14844 -54.1885 -5.56543 -110.047 -1.23242 -164.171c3.0752 -38.3779 -87.4961 -42.126 -90.6172 -3.16699
c-0.65332 8.17188 -1.06543 16.3926 -1.36719 24.6328c-3.55859 -2.96582 -7.19336 -5.87109 -11.0059 -8.625z" />
    <glyph glyph-name="H" unicode="H" horiz-adv-x="478" 
d="M358.154 -8.68945c-0.268555 160.691 -0.328125 321.389 -0.350586 482.077c-79.0332 -2.13477 -158.093 -1.80566 -237.152 -2.57227c0.0302734 -158.78 0.101562 -317.561 0.411133 -476.341c0.0791016 -39.1787 -90.541 -41.6084 -90.6162 -3.16699
c-0.438477 224.983 -0.446289 449.97 -0.446289 674.953c0 39.1895 90.6162 41.5889 90.6162 3.16602c0 -47.165 0.0185547 -94.334 0.0224609 -141.503c79.0596 0.748047 158.119 0.442383 237.152 2.61816c-0.00390625 45.2422 -0.0185547 90.4844 -0.0185547 135.723
c0 39.1895 90.6162 41.5889 90.6162 3.16602c0 -224.986 0.00390625 -449.97 0.381836 -674.953c0.0683594 -39.1787 -90.5518 -41.6084 -90.6162 -3.16699z" />
    <glyph glyph-name="I" unicode="I" horiz-adv-x="151" 
d="M121.062 -5.52344c0.0751953 -39.1748 -90.5449 -41.6074 -90.6162 -3.16602c-0.438477 224.983 -0.446289 449.97 -0.446289 674.953c0 39.1895 90.6162 41.5889 90.6162 3.16602c0 -224.986 0.0078125 -449.97 0.446289 -674.953z" />
    <glyph glyph-name="I" unicode="&#xcf;" horiz-adv-x="151" 
d="M121.062 -5.52344c0.0751953 -39.1748 -90.5449 -41.6074 -90.6162 -3.16602c-0.438477 224.983 -0.446289 449.97 -0.446289 674.953c0 39.1895 90.6162 41.5889 90.6162 3.16602c0 -224.986 0.0078125 -449.97 0.446289 -674.953z" />
    <glyph glyph-name="I" unicode="&#xce;" horiz-adv-x="151" 
d="M121.062 -5.52344c0.0751953 -39.1748 -90.5449 -41.6074 -90.6162 -3.16602c-0.438477 224.983 -0.446289 449.97 -0.446289 674.953c0 39.1895 90.6162 41.5889 90.6162 3.16602c0 -224.986 0.0078125 -449.97 0.446289 -674.953z" />
    <glyph glyph-name="I" unicode="&#xcd;" horiz-adv-x="151" 
d="M121.062 -5.52344c0.0751953 -39.1748 -90.5449 -41.6074 -90.6162 -3.16602c-0.438477 224.983 -0.446289 449.97 -0.446289 674.953c0 39.1895 90.6162 41.5889 90.6162 3.16602c0 -224.986 0.0078125 -449.97 0.446289 -674.953z" />
    <glyph glyph-name="J" unicode="J" horiz-adv-x="356" 
d="M330.229 384.304c-0.185547 -72.0508 -0.897461 -144.524 -8.58984 -216.239c-5.3457 -49.8252 -11.5488 -107.222 -45.4414 -146.884c-36.7676 -43.0283 -98.2285 -61.6885 -153.305 -52.5078c-65.8857 10.9795 -110.859 60.2305 -128.775 122.811
c-5.83691 20.3936 12.1992 32.3438 30.4209 36.2197c15.5996 3.32129 50.7578 1.8252 56.4326 -17.9902c8.05078 -28.1279 20.1553 -56.2705 43.6621 -74.9043c-1.66211 1.31836 8.08496 -5.07422 11.1562 -6.74414c0.691406 -0.374023 1.2168 -0.668945 1.65918 -0.925781
c0.505859 -0.151367 1.10645 -0.339844 1.94141 -0.623047c2.02148 -0.683594 4.14453 -1.26562 6.16602 -1.9873c0.532227 -0.0830078 1.46582 -0.245117 2.86035 -0.505859c0.385742 0.155273 1.59863 0.0419922 2.89062 -0.135742
c-3.98926 1.0918 10.209 1.47363 7.26953 0.242188c4.61719 1.15234 10.3105 2.6748 6.65332 1.21289c2.64844 0.986328 5.2666 2.03613 7.85449 3.16211c0.169922 0.234375 6.41895 3.4873 8.06641 4.59473c2.33105 1.56836 4.58691 3.23047 6.79688 4.96484
c0.381836 0.298828 0.646484 0.50293 0.865234 0.665039c14.7461 13.752 20.5381 25.2979 26.8057 44.498c15.5391 47.5996 17.9912 99.7363 20.6016 149.346c7.12891 135.447 2.32715 271.336 1.64746 406.927c-52.5791 -0.699219 -105.144 2.17578 -157.765 1.32227
c-16.0303 -0.256836 -45.5674 5.71973 -46.3076 26.9639c-0.725586 20.7871 27.8555 29.8584 44.3125 30.127c66.1426 1.07324 132.194 -3.8418 198.303 0c4.35254 0.25293 9.71387 -0.117188 15.2188 -1.16699c19.4756 -1.54102 36.7715 -10.5332 36.7793 -27.3193
c0.0449219 -95.0449 2.0625 -190.078 1.82031 -285.122z" />
    <glyph glyph-name="K" unicode="K" horiz-adv-x="386" 
d="M330.906 546.805c-20.9678 -26.7559 -49.6904 -46.6826 -80.5566 -60.3965c-6.80469 -3.02246 -13.7188 -5.68262 -20.708 -8.07422c44.2822 -28.8037 78.4131 -72.0586 97.7227 -125.291c16.8877 -46.5498 22.7285 -97.0098 28.4863 -145.863
c8.32715 -70.6572 10.5898 -141.673 6.46777 -212.704c-2.28906 -39.4697 -92.8037 -40.8936 -90.6162 -3.16602c3.8457 66.2969 2.20605 132.624 -4.88574 198.653c-4.84766 45.1553 -10.2959 96.1289 -22.9033 134.956
c-10.4463 32.1816 -25.8721 63.4756 -48.8574 88.1465c-21.8711 23.4727 -46.0586 37.0059 -74.25 43.5869c-0.135742 -151.969 -0.192383 -303.934 -0.192383 -455.898c0 -39.1895 -90.6162 -41.5889 -90.6162 -3.16602c0 224.986 0.0078125 449.97 0.446289 674.953
c0.0751953 39.2051 90.6914 41.5703 90.6162 3.16602c-0.101562 -52.6475 -0.120117 -105.299 -0.180664 -157.946c7.85449 0.268555 15.7051 0.661133 23.5674 1.27734c1.04688 0.0830078 1.84375 0.155273 2.5166 0.21582
c1.60938 0.211914 3.22266 0.412109 4.82812 0.672852c5.5459 0.895508 11.0732 1.83984 16.5703 3.01074c5.05469 1.07715 10.0908 2.30469 15.0703 3.69922c-0.849609 -0.105469 9.67578 3.4082 11.9502 4.31152c14.1943 5.64453 17.2588 7.23926 29.3789 15.8232
c9.90234 7.01172 17.5303 14.4619 25.4492 24.2734c21.5879 26.7373 28.5127 58.0801 32.8271 91.4326c2.73145 21.1191 25.1689 29.457 44.3125 30.126c13.915 0.483398 48.9795 -6.2832 46.3047 -26.9639c-5.70117 -44.0557 -14.8398 -83.2266 -42.748 -118.835z
M147.764 519.326c1.26562 0.125 1.32617 0.158203 0 0z" />
    <glyph glyph-name="L" unicode="L" horiz-adv-x="330" 
d="M78.707 -36.0459c-23.5791 -1.59082 -48.2217 7.31543 -48.2598 27.3545c-0.442383 224.983 -0.446289 449.97 -0.446289 674.953c0 39.1895 90.6162 41.5889 90.6162 3.16602c0 -216.09 0.0263672 -432.18 0.415039 -648.27
c59.875 0.453125 119.742 0.438477 179.583 3.01855c16.0186 0.6875 45.5781 -6.03711 46.3076 -26.9639c0.736328 -21.0928 -27.8672 -29.416 -44.3135 -30.126c-72.3418 -3.11719 -144.726 -2.4375 -217.109 -3.38184
c-2.06641 -0.0263672 -4.36719 0.0527344 -6.79297 0.249023z" />
    <glyph glyph-name="M" unicode="M" horiz-adv-x="502" 
d="M290.225 488.639c-17.9385 -15.0781 -38.7656 -23.1748 -62.915 -17.3525c-16.6465 4.0127 -24.875 13.7451 -36.0576 25.0146c-23.541 23.7227 -47.0781 47.4492 -70.6191 71.1719c0.0117188 -190.995 0.0537109 -381.994 0.419922 -572.993
c0.0751953 -39.1787 -90.5449 -41.6084 -90.6172 -3.16699c-0.430664 224.983 -0.43457 449.97 -0.43457 674.953c0 35.5322 74.4961 40.8174 88.3955 12.8525c43.3076 -43.6475 86.6191 -87.292 129.927 -130.939c18.4902 17.0996 36.7461 34.4521 54.9219 51.8877
c27.2666 26.1553 54.3818 52.4805 81.334 78.9648c17.0273 26.2275 85.9395 24.1123 86.793 -8.99512c0.245117 -1.52637 0.25293 -3.07129 0.0449219 -4.62402c0 -223.646 0.0078125 -447.287 0.43457 -670.933c0.0751953 -39.1787 -90.5449 -41.6084 -90.6162 -3.16699
c-0.370117 193.674 -0.412109 387.352 -0.419922 581.025c-29.5713 -28.5166 -59.1572 -57.2754 -90.5908 -83.6992z" />
    <glyph glyph-name="N" unicode="N" horiz-adv-x="485" 
d="M121.062 -5.52344c0.0751953 -39.1748 -90.541 -41.6084 -90.6162 -3.16699c-0.438477 224.983 -0.446289 449.97 -0.446289 674.953c0 35.7441 75.3418 40.8633 88.6025 12.3428c4.43945 -5.04395 7.83594 -13.3477 10.6396 -18.7578
c6.47949 -12.5088 12.71 -25.1504 18.9551 -37.7764c72.5654 -146.735 143.381 -294.329 215.568 -441.246c-0.162109 161.813 -0.226562 323.627 -0.226562 485.438c0 39.1895 90.6162 41.5889 90.6162 3.16602c0 -224.159 0.0078125 -448.318 0.442383 -672.478
c2.43262 -9.34277 -2.15039 -16.9521 -10.4541 -22.3584c-22.415 -17.3906 -73.5586 -14.0508 -79.5312 11.6855c-31.543 62.4365 -62.6211 125.106 -93.5068 187.871c-50.4941 102.623 -100.425 205.515 -150.458 308.36
c0.0263672 -162.679 0.0976562 -325.357 0.415039 -488.033z" />
    <glyph glyph-name="O" unicode="O" 
d="M452.596 129.874c-24.7051 -59.8184 -65.6592 -112.774 -125.844 -139.761c-46.4326 -20.8242 -104.135 -25.7354 -152.407 -8.30371c-33.8926 12.2412 -61.0527 35.2646 -82.4443 63.7471c-77.5186 103.213 -89.9824 251.6 -73.5703 375.712
c15.0215 113.606 60.3691 251.173 183.224 284.798c1.68164 0.540039 3.33301 1.01562 4.88965 1.36328c1.37891 0.335938 2.86328 0.608398 4.39355 0.84668c62.2129 12.5166 125.42 -4.75684 171.104 -49.3604c43.4404 -42.416 68.8672 -101.486 84.3652 -159.23
c31.7695 -118.4 33.6738 -255.083 -13.7109 -369.812zM314.878 63.5244c33.9189 34.6562 52.4961 77.0146 65.8398 125.805c28.0977 102.688 23.2539 223.12 -10.707 323.431c-15.4443 45.6309 -35.0371 85.9766 -67.3428 116.563
c-3.29785 3.12109 -6.73926 6.09082 -10.2754 8.94336c-0.0683594 -0.147461 -7.05762 4.82812 -8.31543 5.60254c-3.75586 2.3125 -7.73828 4.16406 -11.543 6.36621c-0.101562 0.0302734 -0.162109 0.0449219 -0.271484 0.0751953
c-2.48242 0.717773 -4.89648 1.8252 -7.36719 2.61133c-0.464844 0.147461 -0.9375 0.268555 -1.40625 0.404297c-0.25293 0.0869141 -0.978516 0.302734 -1.87402 0.541016c-1.41699 0.385742 -2.83398 0.763672 -4.24707 1.18262
c1.14453 -0.339844 2.05078 -0.604492 2.84375 -0.834961c-0.804688 0.188477 -1.60156 0.34668 -2.20215 0.411133c-3.95215 0.422852 -18.2939 0.105469 -3.8584 0.811523c-4.25781 -0.208008 -8.60645 -0.339844 -12.8828 -0.418945
c-0.0605469 -0.0185547 -0.0947266 -0.0302734 -0.15918 -0.0488281c-2.78809 -0.77832 -5.81445 -1.12207 -8.64844 -1.75684c-1.04297 -0.256836 -1.80566 -0.430664 -2.45215 -0.570312c-0.135742 -0.0683594 -0.222656 -0.117188 -0.380859 -0.192383
c-2.47852 -1.18262 -5.29297 -2.14941 -7.8623 -3.13184c-0.914062 -0.347656 -2.76953 -1.26953 -4.02734 -1.89648c-1.50391 -0.873047 -3.02637 -1.71973 -4.5 -2.64551c-4.92676 -3.09766 -9.51367 -6.59961 -14.1377 -10.1211
c-0.479492 -0.366211 -0.849609 -0.641602 -1.16309 -0.87207c-0.242188 -0.238281 -0.537109 -0.521484 -0.915039 -0.880859c-2.19531 -2.07812 -4.36816 -4.17871 -6.47656 -6.34766c-20.2881 -20.8701 -31.0557 -38.876 -42.8965 -64.2529
c-26.7373 -57.3096 -39.1895 -120.645 -43.1113 -183.466c-6.52051 -104.455 7.16406 -237.254 75.9961 -315.883c17.9189 -20.4658 39.3145 -34.9697 62.5801 -34.3271c13.8125 0.381836 32.1436 5.84082 46.7949 14.8818c5.91309 3.64941 11.5312 7.82031 16.8809 12.2598
c-1.23926 -0.910156 6.5166 6.15137 8.08789 7.75684z" />
    <glyph glyph-name="O" unicode="&#xd6;" 
d="M452.596 129.874c-24.7051 -59.8184 -65.6592 -112.774 -125.844 -139.761c-46.4326 -20.8242 -104.135 -25.7354 -152.407 -8.30371c-33.8926 12.2412 -61.0527 35.2646 -82.4443 63.7471c-77.5186 103.213 -89.9824 251.6 -73.5703 375.712
c15.0215 113.606 60.3691 251.173 183.224 284.798c1.68164 0.540039 3.33301 1.01562 4.88965 1.36328c1.37891 0.335938 2.86328 0.608398 4.39355 0.84668c62.2129 12.5166 125.42 -4.75684 171.104 -49.3604c43.4404 -42.416 68.8672 -101.486 84.3652 -159.23
c31.7695 -118.4 33.6738 -255.083 -13.7109 -369.812zM314.878 63.5244c33.9189 34.6562 52.4961 77.0146 65.8398 125.805c28.0977 102.688 23.2539 223.12 -10.707 323.431c-15.4443 45.6309 -35.0371 85.9766 -67.3428 116.563
c-3.29785 3.12109 -6.73926 6.09082 -10.2754 8.94336c-0.0683594 -0.147461 -7.05762 4.82812 -8.31543 5.60254c-3.75586 2.3125 -7.73828 4.16406 -11.543 6.36621c-0.101562 0.0302734 -0.162109 0.0449219 -0.271484 0.0751953
c-2.48242 0.717773 -4.89648 1.8252 -7.36719 2.61133c-0.464844 0.147461 -0.9375 0.268555 -1.40625 0.404297c-0.25293 0.0869141 -0.978516 0.302734 -1.87402 0.541016c-1.41699 0.385742 -2.83398 0.763672 -4.24707 1.18262
c1.14453 -0.339844 2.05078 -0.604492 2.84375 -0.834961c-0.804688 0.188477 -1.60156 0.34668 -2.20215 0.411133c-3.95215 0.422852 -18.2939 0.105469 -3.8584 0.811523c-4.25781 -0.208008 -8.60645 -0.339844 -12.8828 -0.418945
c-0.0605469 -0.0185547 -0.0947266 -0.0302734 -0.15918 -0.0488281c-2.78809 -0.77832 -5.81445 -1.12207 -8.64844 -1.75684c-1.04297 -0.256836 -1.80566 -0.430664 -2.45215 -0.570312c-0.135742 -0.0683594 -0.222656 -0.117188 -0.380859 -0.192383
c-2.47852 -1.18262 -5.29297 -2.14941 -7.8623 -3.13184c-0.914062 -0.347656 -2.76953 -1.26953 -4.02734 -1.89648c-1.50391 -0.873047 -3.02637 -1.71973 -4.5 -2.64551c-4.92676 -3.09766 -9.51367 -6.59961 -14.1377 -10.1211
c-0.479492 -0.366211 -0.849609 -0.641602 -1.16309 -0.87207c-0.242188 -0.238281 -0.537109 -0.521484 -0.915039 -0.880859c-2.19531 -2.07812 -4.36816 -4.17871 -6.47656 -6.34766c-20.2881 -20.8701 -31.0557 -38.876 -42.8965 -64.2529
c-26.7373 -57.3096 -39.1895 -120.645 -43.1113 -183.466c-6.52051 -104.455 7.16406 -237.254 75.9961 -315.883c17.9189 -20.4658 39.3145 -34.9697 62.5801 -34.3271c13.8125 0.381836 32.1436 5.84082 46.7949 14.8818c5.91309 3.64941 11.5312 7.82031 16.8809 12.2598
c-1.23926 -0.910156 6.5166 6.15137 8.08789 7.75684z" />
    <glyph glyph-name="O" unicode="&#xd5;" 
d="M452.596 129.874c-24.7051 -59.8184 -65.6592 -112.774 -125.844 -139.761c-46.4326 -20.8242 -104.135 -25.7354 -152.407 -8.30371c-33.8926 12.2412 -61.0527 35.2646 -82.4443 63.7471c-77.5186 103.213 -89.9824 251.6 -73.5703 375.712
c15.0215 113.606 60.3691 251.173 183.224 284.798c1.68164 0.540039 3.33301 1.01562 4.88965 1.36328c1.37891 0.335938 2.86328 0.608398 4.39355 0.84668c62.2129 12.5166 125.42 -4.75684 171.104 -49.3604c43.4404 -42.416 68.8672 -101.486 84.3652 -159.23
c31.7695 -118.4 33.6738 -255.083 -13.7109 -369.812zM314.878 63.5244c33.9189 34.6562 52.4961 77.0146 65.8398 125.805c28.0977 102.688 23.2539 223.12 -10.707 323.431c-15.4443 45.6309 -35.0371 85.9766 -67.3428 116.563
c-3.29785 3.12109 -6.73926 6.09082 -10.2754 8.94336c-0.0683594 -0.147461 -7.05762 4.82812 -8.31543 5.60254c-3.75586 2.3125 -7.73828 4.16406 -11.543 6.36621c-0.101562 0.0302734 -0.162109 0.0449219 -0.271484 0.0751953
c-2.48242 0.717773 -4.89648 1.8252 -7.36719 2.61133c-0.464844 0.147461 -0.9375 0.268555 -1.40625 0.404297c-0.25293 0.0869141 -0.978516 0.302734 -1.87402 0.541016c-1.41699 0.385742 -2.83398 0.763672 -4.24707 1.18262
c1.14453 -0.339844 2.05078 -0.604492 2.84375 -0.834961c-0.804688 0.188477 -1.60156 0.34668 -2.20215 0.411133c-3.95215 0.422852 -18.2939 0.105469 -3.8584 0.811523c-4.25781 -0.208008 -8.60645 -0.339844 -12.8828 -0.418945
c-0.0605469 -0.0185547 -0.0947266 -0.0302734 -0.15918 -0.0488281c-2.78809 -0.77832 -5.81445 -1.12207 -8.64844 -1.75684c-1.04297 -0.256836 -1.80566 -0.430664 -2.45215 -0.570312c-0.135742 -0.0683594 -0.222656 -0.117188 -0.380859 -0.192383
c-2.47852 -1.18262 -5.29297 -2.14941 -7.8623 -3.13184c-0.914062 -0.347656 -2.76953 -1.26953 -4.02734 -1.89648c-1.50391 -0.873047 -3.02637 -1.71973 -4.5 -2.64551c-4.92676 -3.09766 -9.51367 -6.59961 -14.1377 -10.1211
c-0.479492 -0.366211 -0.849609 -0.641602 -1.16309 -0.87207c-0.242188 -0.238281 -0.537109 -0.521484 -0.915039 -0.880859c-2.19531 -2.07812 -4.36816 -4.17871 -6.47656 -6.34766c-20.2881 -20.8701 -31.0557 -38.876 -42.8965 -64.2529
c-26.7373 -57.3096 -39.1895 -120.645 -43.1113 -183.466c-6.52051 -104.455 7.16406 -237.254 75.9961 -315.883c17.9189 -20.4658 39.3145 -34.9697 62.5801 -34.3271c13.8125 0.381836 32.1436 5.84082 46.7949 14.8818c5.91309 3.64941 11.5312 7.82031 16.8809 12.2598
c-1.23926 -0.910156 6.5166 6.15137 8.08789 7.75684z" />
    <glyph glyph-name="O" unicode="&#xd4;" 
d="M452.596 129.874c-24.7051 -59.8184 -65.6592 -112.774 -125.844 -139.761c-46.4326 -20.8242 -104.135 -25.7354 -152.407 -8.30371c-33.8926 12.2412 -61.0527 35.2646 -82.4443 63.7471c-77.5186 103.213 -89.9824 251.6 -73.5703 375.712
c15.0215 113.606 60.3691 251.173 183.224 284.798c1.68164 0.540039 3.33301 1.01562 4.88965 1.36328c1.37891 0.335938 2.86328 0.608398 4.39355 0.84668c62.2129 12.5166 125.42 -4.75684 171.104 -49.3604c43.4404 -42.416 68.8672 -101.486 84.3652 -159.23
c31.7695 -118.4 33.6738 -255.083 -13.7109 -369.812zM314.878 63.5244c33.9189 34.6562 52.4961 77.0146 65.8398 125.805c28.0977 102.688 23.2539 223.12 -10.707 323.431c-15.4443 45.6309 -35.0371 85.9766 -67.3428 116.563
c-3.29785 3.12109 -6.73926 6.09082 -10.2754 8.94336c-0.0683594 -0.147461 -7.05762 4.82812 -8.31543 5.60254c-3.75586 2.3125 -7.73828 4.16406 -11.543 6.36621c-0.101562 0.0302734 -0.162109 0.0449219 -0.271484 0.0751953
c-2.48242 0.717773 -4.89648 1.8252 -7.36719 2.61133c-0.464844 0.147461 -0.9375 0.268555 -1.40625 0.404297c-0.25293 0.0869141 -0.978516 0.302734 -1.87402 0.541016c-1.41699 0.385742 -2.83398 0.763672 -4.24707 1.18262
c1.14453 -0.339844 2.05078 -0.604492 2.84375 -0.834961c-0.804688 0.188477 -1.60156 0.34668 -2.20215 0.411133c-3.95215 0.422852 -18.2939 0.105469 -3.8584 0.811523c-4.25781 -0.208008 -8.60645 -0.339844 -12.8828 -0.418945
c-0.0605469 -0.0185547 -0.0947266 -0.0302734 -0.15918 -0.0488281c-2.78809 -0.77832 -5.81445 -1.12207 -8.64844 -1.75684c-1.04297 -0.256836 -1.80566 -0.430664 -2.45215 -0.570312c-0.135742 -0.0683594 -0.222656 -0.117188 -0.380859 -0.192383
c-2.47852 -1.18262 -5.29297 -2.14941 -7.8623 -3.13184c-0.914062 -0.347656 -2.76953 -1.26953 -4.02734 -1.89648c-1.50391 -0.873047 -3.02637 -1.71973 -4.5 -2.64551c-4.92676 -3.09766 -9.51367 -6.59961 -14.1377 -10.1211
c-0.479492 -0.366211 -0.849609 -0.641602 -1.16309 -0.87207c-0.242188 -0.238281 -0.537109 -0.521484 -0.915039 -0.880859c-2.19531 -2.07812 -4.36816 -4.17871 -6.47656 -6.34766c-20.2881 -20.8701 -31.0557 -38.876 -42.8965 -64.2529
c-26.7373 -57.3096 -39.1895 -120.645 -43.1113 -183.466c-6.52051 -104.455 7.16406 -237.254 75.9961 -315.883c17.9189 -20.4658 39.3145 -34.9697 62.5801 -34.3271c13.8125 0.381836 32.1436 5.84082 46.7949 14.8818c5.91309 3.64941 11.5312 7.82031 16.8809 12.2598
c-1.23926 -0.910156 6.5166 6.15137 8.08789 7.75684z" />
    <glyph glyph-name="O" unicode="&#xd3;" 
d="M452.596 129.874c-24.7051 -59.8184 -65.6592 -112.774 -125.844 -139.761c-46.4326 -20.8242 -104.135 -25.7354 -152.407 -8.30371c-33.8926 12.2412 -61.0527 35.2646 -82.4443 63.7471c-77.5186 103.213 -89.9824 251.6 -73.5703 375.712
c15.0215 113.606 60.3691 251.173 183.224 284.798c1.68164 0.540039 3.33301 1.01562 4.88965 1.36328c1.37891 0.335938 2.86328 0.608398 4.39355 0.84668c62.2129 12.5166 125.42 -4.75684 171.104 -49.3604c43.4404 -42.416 68.8672 -101.486 84.3652 -159.23
c31.7695 -118.4 33.6738 -255.083 -13.7109 -369.812zM314.878 63.5244c33.9189 34.6562 52.4961 77.0146 65.8398 125.805c28.0977 102.688 23.2539 223.12 -10.707 323.431c-15.4443 45.6309 -35.0371 85.9766 -67.3428 116.563
c-3.29785 3.12109 -6.73926 6.09082 -10.2754 8.94336c-0.0683594 -0.147461 -7.05762 4.82812 -8.31543 5.60254c-3.75586 2.3125 -7.73828 4.16406 -11.543 6.36621c-0.101562 0.0302734 -0.162109 0.0449219 -0.271484 0.0751953
c-2.48242 0.717773 -4.89648 1.8252 -7.36719 2.61133c-0.464844 0.147461 -0.9375 0.268555 -1.40625 0.404297c-0.25293 0.0869141 -0.978516 0.302734 -1.87402 0.541016c-1.41699 0.385742 -2.83398 0.763672 -4.24707 1.18262
c1.14453 -0.339844 2.05078 -0.604492 2.84375 -0.834961c-0.804688 0.188477 -1.60156 0.34668 -2.20215 0.411133c-3.95215 0.422852 -18.2939 0.105469 -3.8584 0.811523c-4.25781 -0.208008 -8.60645 -0.339844 -12.8828 -0.418945
c-0.0605469 -0.0185547 -0.0947266 -0.0302734 -0.15918 -0.0488281c-2.78809 -0.77832 -5.81445 -1.12207 -8.64844 -1.75684c-1.04297 -0.256836 -1.80566 -0.430664 -2.45215 -0.570312c-0.135742 -0.0683594 -0.222656 -0.117188 -0.380859 -0.192383
c-2.47852 -1.18262 -5.29297 -2.14941 -7.8623 -3.13184c-0.914062 -0.347656 -2.76953 -1.26953 -4.02734 -1.89648c-1.50391 -0.873047 -3.02637 -1.71973 -4.5 -2.64551c-4.92676 -3.09766 -9.51367 -6.59961 -14.1377 -10.1211
c-0.479492 -0.366211 -0.849609 -0.641602 -1.16309 -0.87207c-0.242188 -0.238281 -0.537109 -0.521484 -0.915039 -0.880859c-2.19531 -2.07812 -4.36816 -4.17871 -6.47656 -6.34766c-20.2881 -20.8701 -31.0557 -38.876 -42.8965 -64.2529
c-26.7373 -57.3096 -39.1895 -120.645 -43.1113 -183.466c-6.52051 -104.455 7.16406 -237.254 75.9961 -315.883c17.9189 -20.4658 39.3145 -34.9697 62.5801 -34.3271c13.8125 0.381836 32.1436 5.84082 46.7949 14.8818c5.91309 3.64941 11.5312 7.82031 16.8809 12.2598
c-1.23926 -0.910156 6.5166 6.15137 8.08789 7.75684z" />
    <glyph glyph-name="P" unicode="P" horiz-adv-x="408" 
d="M120.62 -2.38379c0 -39.1895 -90.6152 -41.5908 -90.6191 -3.16406c0 224.986 0.0078125 449.97 0.446289 674.953c0.0449219 22.2334 29.2119 32.6045 54.4414 30.4209c46.3828 1.625 92.3955 3.41211 138.869 0.642578
c51.0527 -3.04102 109.703 -10.6006 150.752 -43.8252c36.6777 -29.6846 35.6045 -80.4727 3.90625 -113.682c-38.2305 -40.0547 -99.7148 -55.1514 -152.607 -62.7793c-32.8955 -4.74512 -70.0938 -9.82324 -104.973 -7.73438
c-0.155273 -158.277 -0.21582 -316.555 -0.21582 -474.832zM198.615 644.696c-1.16406 0.0449219 -1.59766 0.0605469 0 0zM179.775 645.185c-19.6152 0.279297 -39.1758 -0.304688 -58.7275 -1.06445c-0.0683594 -37.7275 -0.0830078 -75.4551 -0.12793 -113.183
c0.499023 -0.0644531 0.998047 -0.125 1.49707 -0.197266c0.646484 -0.0908203 1.30371 -0.121094 1.96094 -0.155273c8.48535 0.21875 17.0537 -0.321289 25.5508 -0.0761719c11.3379 0.329102 22.668 1.02832 33.9639 2.05566
c3.05273 0.279297 6.09766 0.619141 9.15039 0.90625c0.162109 0.0146484 0.263672 0.0224609 0.415039 0.0371094c0.211914 0.0302734 0.393555 0.0605469 0.672852 0.0986328c6.3584 0.891602 12.7051 1.80176 19.0332 2.89746
c11.4697 1.9873 22.876 4.38672 34.1348 7.36426c2.44434 0.646484 4.88086 1.33789 7.31055 2.04395c0.529297 0.188477 1.16016 0.415039 1.97656 0.706055c4.62402 1.65137 9.24805 3.28711 13.7891 5.16113c14.957 6.17383 25.7021 11.5576 35.6426 25.3398
c-0.970703 -0.974609 3.51758 7.22754 4.36426 9.30176c0.505859 1.23926 0.898438 2.65234 1.24609 4.03906c0.113281 0.657227 0.385742 2.11523 0.423828 2.56445c0.34375 4.09961 0.196289 8.05176 -0.242188 12.1279
c-0.0341797 0.291016 -0.173828 0.959961 -0.329102 1.64746c-0.513672 1.20898 -1.49609 3.8877 -1.52637 3.94434c-0.963867 1.71484 -1.8252 3.4834 -2.7998 5.19824c-0.139648 0.139648 -0.25293 0.25293 -0.415039 0.422852
c-1.61719 1.69238 -3.26855 3.30176 -4.96094 4.87695c-0.105469 -0.113281 -4.72949 3.43848 -6.38379 4.40234c-2.01367 1.16699 -4.0957 2.17578 -6.14746 3.26758c-4.70703 1.83203 -9.42578 3.54395 -14.2617 5.01758
c-1.93457 0.589844 -11.5537 3.00391 -10.5488 2.89453c-8.9541 1.8623 -17.9951 3.31348 -27.0625 4.48047c-11.2588 1.44727 -22.5557 2.37305 -33.875 3.15527c-0.993164 0.0683594 -2.94238 0.155273 -4.33691 0.21582
c-1.47754 0.0566406 -2.95117 0.117188 -4.42871 0.166016c-4.9873 0.162109 -9.9707 0.271484 -14.958 0.342773z" />
    <glyph glyph-name="Q" unicode="Q" 
d="M452.6 129.874c-23.541 -56.999 -61.8828 -107.714 -117.515 -135.721c19.6309 -37.8525 40.4668 -75.0742 62.5645 -111.593c11.2812 -18.6484 -16.8838 -33.3379 -30.4209 -36.2207c-19.6387 -4.17871 -45.2764 -0.450195 -56.4326 17.9902
c-21.2549 35.125 -41.3311 70.8994 -60.3008 107.256c-26.0195 -1.54883 -52.2432 1.59082 -76.1504 10.2236c-33.8926 12.2412 -61.0527 35.2646 -82.4443 63.7471c-77.5176 103.213 -89.9814 251.6 -73.5693 375.712c15.0215 113.606 60.3691 251.173 183.224 284.798
c1.68164 0.540039 3.33301 1.01562 4.88965 1.36328c1.37891 0.335938 2.86328 0.608398 4.39355 0.84668c62.2168 12.5166 125.42 -4.75684 171.104 -49.3604c43.4404 -42.416 68.8701 -101.486 84.3643 -159.23c31.7734 -118.4 33.6777 -255.083 -13.707 -369.812z
M314.88 63.5254c33.916 34.6562 52.4941 77.0176 65.8311 125.808c28.0977 102.688 23.2539 223.12 -10.707 323.431c-15.4443 45.6309 -35.0371 85.9766 -67.3428 116.563c-3.29785 3.12109 -6.73926 6.09082 -10.2754 8.94336
c-0.0644531 -0.151367 -7.05762 4.82812 -8.31543 5.60254c-3.75586 2.3125 -7.74121 4.16406 -11.542 6.36621c-0.101562 0.0302734 -0.162109 0.0449219 -0.271484 0.0751953c-2.48242 0.717773 -4.89648 1.8252 -7.36719 2.61133
c-0.464844 0.147461 -0.9375 0.268555 -1.40625 0.404297c-0.25293 0.0869141 -0.978516 0.302734 -1.87402 0.541016c-1.41699 0.385742 -2.83398 0.763672 -4.24707 1.18262c1.14453 -0.339844 2.05078 -0.604492 2.84375 -0.834961
c-0.804688 0.188477 -1.60156 0.34668 -2.20215 0.411133c-3.95215 0.422852 -18.2939 0.105469 -3.8584 0.811523c-4.25391 -0.208008 -8.60645 -0.339844 -12.8799 -0.418945c-0.0605469 -0.0185547 -0.0947266 -0.0302734 -0.15918 -0.0488281
c-2.78809 -0.77832 -5.81445 -1.12207 -8.64844 -1.75684c-1.03906 -0.256836 -1.80176 -0.430664 -2.45117 -0.570312c-0.135742 -0.0683594 -0.222656 -0.117188 -0.380859 -0.192383c-2.47852 -1.18262 -5.29297 -2.14941 -7.8623 -3.13184
c-0.914062 -0.351562 -2.76953 -1.27344 -4.02734 -1.90039c-1.50781 -0.869141 -3.02637 -1.71582 -4.5 -2.6416c-4.92676 -3.09766 -9.51367 -6.59961 -14.1377 -10.1211c-0.483398 -0.366211 -0.849609 -0.641602 -1.16309 -0.87207
c-0.242188 -0.238281 -0.533203 -0.521484 -0.915039 -0.880859c-2.19531 -2.07812 -4.36816 -4.17871 -6.47656 -6.34766c-20.2881 -20.8701 -31.0557 -38.876 -42.8965 -64.2529c-26.7373 -57.3096 -39.1895 -120.645 -43.1113 -183.466
c-6.52051 -104.455 7.16406 -237.254 75.9961 -315.883c11.7305 -13.4004 24.957 -24.2061 39.2158 -29.9189c-3.9668 8.30762 -7.87695 16.6455 -11.7305 25.0098c-17.6436 38.3203 71.5068 51.5508 86.8496 18.2285c3.37012 -7.31445 6.80078 -14.5986 10.2578 -21.8711
c0.55957 0.449219 1.11523 0.90625 1.66699 1.36328c-1.23926 -0.910156 6.5166 6.15137 8.08789 7.75684z" />
    <glyph glyph-name="R" unicode="R" horiz-adv-x="414" 
d="M374.509 656.645c36.6738 -29.6875 35.6016 -80.4736 3.90039 -113.687c-33.0049 -34.5801 -83.3398 -50.542 -130.521 -59.1709c48.5742 -28.6494 85.9619 -74.0352 106.533 -130.744c16.8877 -46.5498 22.7285 -97.0098 28.4863 -145.863
c8.32715 -70.6572 10.5898 -141.673 6.46777 -212.704c-2.28906 -39.4697 -92.8037 -40.8936 -90.6162 -3.16602c3.8457 66.2969 2.20215 132.624 -4.88574 198.653c-4.84766 45.1553 -10.2959 96.1289 -22.9033 134.956
c-10.4463 32.1816 -25.8721 63.4756 -48.8574 88.1465c-28.5283 30.6133 -60.9629 44.3691 -101.131 47.7656c-0.0527344 0.0078125 -0.109375 0.0195312 -0.162109 0.0234375c-0.147461 -154.413 -0.204102 -308.822 -0.204102 -463.235
c0 -39.1895 -90.6162 -41.5889 -90.6162 -3.16602c0 224.986 0.0078125 449.97 0.446289 674.953c0.0449219 22.2334 29.2119 32.6045 54.4414 30.4209c46.3828 1.625 92.3955 3.41211 138.869 0.642578c51.0527 -3.04102 109.703 -10.6006 150.752 -43.8252z
M198.607 644.696c-1.16016 0.0449219 -1.59082 0.0605469 0 0zM312.036 593.018c0.34375 4.09961 0.200195 8.05762 -0.242188 12.123c-0.0302734 0.291016 -0.173828 0.959961 -0.329102 1.64746c-0.509766 1.20898 -1.49219 3.8877 -1.52246 3.94434
c-0.963867 1.71484 -1.8252 3.4834 -2.7998 5.19824c-0.139648 0.143555 -0.256836 0.256836 -0.415039 0.426758c-1.61719 1.69238 -3.26855 3.30176 -4.96094 4.87695c-0.105469 -0.113281 -4.72949 3.43848 -6.38477 4.40234
c-2.00977 1.16699 -4.0957 2.17578 -6.14746 3.26758c-4.7041 1.83203 -9.42676 3.54395 -14.2588 5.01758c-1.93457 0.589844 -11.5537 3.00391 -10.5488 2.89453c-8.9541 1.8623 -17.9951 3.31348 -27.0625 4.48047c-11.2588 1.44727 -22.5557 2.37305 -33.875 3.15527
c-0.993164 0.0683594 -2.94238 0.155273 -4.33691 0.21582c-1.47754 0.0566406 -2.95117 0.117188 -4.42871 0.166016c-4.9834 0.162109 -9.9668 0.271484 -14.9541 0.342773c-19.6123 0.283203 -39.1748 -0.302734 -58.7373 -1.0625
c-0.0644531 -37.7275 -0.0830078 -75.4551 -0.12793 -113.183c0.499023 -0.0644531 0.994141 -0.125 1.49707 -0.197266c0.646484 -0.0908203 1.30371 -0.121094 1.96094 -0.155273c8.48535 0.21875 17.0537 -0.321289 25.5508 -0.0761719
c11.3379 0.329102 22.668 1.02832 33.9639 2.05566c3.05273 0.279297 6.09766 0.619141 9.15039 0.90625c0.162109 0.0146484 0.263672 0.0224609 0.415039 0.0371094c0.211914 0.0302734 0.389648 0.0605469 0.672852 0.0986328
c6.3584 0.891602 12.7051 1.80176 19.0332 2.89746c11.4736 1.9873 22.876 4.38672 34.1348 7.36426c2.44434 0.646484 4.88086 1.33789 7.31055 2.04395c0.529297 0.188477 1.16016 0.415039 1.97656 0.706055c4.62402 1.65137 9.24805 3.28711 13.7891 5.16113
c14.957 6.17285 25.7021 11.5566 35.6426 25.3389c-0.970703 -0.974609 3.51758 7.22754 4.36426 9.30176c0.505859 1.23926 0.898438 2.65234 1.24609 4.03906c0.113281 0.661133 0.385742 2.11523 0.423828 2.56445z" />
    <glyph glyph-name="S" unicode="S" horiz-adv-x="391" 
d="M339.294 509.259c-13.9717 -0.487305 -48.9102 6.26855 -46.3037 26.9609c3.37402 26.8359 -0.192383 53.5127 -19.9443 73.4307c-6.31348 6.37012 -17.7871 13.7715 -22.9551 15.959c-5.72363 2.42578 -12.3008 4.23145 -13.3887 4.4541
c-3.13965 0.642578 -17.0615 1.88965 -14.1641 1.82129c-54.8838 1.26953 -110.429 -34.7695 -122.013 -93.7031c-9.66016 -49.1377 6.53223 -109.235 35.8691 -149.468c22.7969 -31.2676 57.2266 -60.2871 87.916 -86.5146
c62.1338 -53.1006 143.721 -113.5 153.963 -201.15c5.46289 -46.75 -14.3525 -92.665 -51.5059 -121.159c-49.334 -37.8369 -119.522 -37.3154 -176.359 -19.8154c-90.2539 27.791 -124.09 124.66 -106.673 211.431c4.0498 20.1787 40.0625 23.9873 55.0391 21.8828
c18.376 -2.58398 37.0059 -13.4229 32.873 -34.0098c-0.0341797 -0.173828 -0.0605469 -0.291016 -0.0908203 -0.442383c-0.0263672 -0.325195 -0.0644531 -0.72168 -0.128906 -1.2959c-0.196289 -1.81348 -0.43457 -3.61914 -0.612305 -5.43652
c-0.392578 -4.03906 -0.634766 -8.09277 -0.774414 -12.1465c-0.34375 -10.0156 0 -20.0576 0.974609 -30.0283c2.11523 -21.6104 7.4082 -42.3779 17.8701 -61.5361c11.9502 -21.8867 27.2139 -32.4346 48.5635 -38.4609
c12.7246 -3.58887 21.6221 -4.69238 32.4121 -4.27344c5.70508 0.21875 15.751 2.45898 20.9082 5.22852c32.0156 17.1943 42.9043 59.8145 35.4805 95.918c-7.21582 35.0908 -33.2051 66.1543 -58.6689 91.8525c-60.9629 61.5254 -140.809 108.577 -186.202 184.214
c-28.3584 47.248 -40.335 110.549 -29.3262 164.454c12.4521 60.9697 63.0664 105.709 120.009 125.922c58.2646 20.6846 125.771 22.9668 181.776 -5.66309c48.4951 -24.792 76.6113 -73.9141 69.7695 -128.299c-2.66016 -21.127 -25.2344 -29.4609 -44.3135 -30.126z" />
    <glyph glyph-name="T" unicode="T" horiz-adv-x="440" 
d="M31.3252 639.715c-16.0303 -0.0830078 -45.5625 5.58789 -46.3145 26.9678c-0.72168 20.6621 27.8555 30.043 44.3125 30.126c61.7451 0.313477 123.486 -0.200195 185.228 -0.551758c7.27246 0.99707 14.8252 0.958984 21.9053 -0.106445
c57.2979 -0.275391 114.596 -0.328125 171.894 0.658203c16.0303 0.275391 45.5674 -5.73145 46.3076 -26.9639c0.725586 -20.7979 -27.8555 -29.8428 -44.3125 -30.126c-47.3916 -0.820312 -94.7832 -0.933594 -142.175 -0.790039
c0.00390625 -214.816 0.0224609 -429.633 0.441406 -644.449c0.0791016 -39.1787 -90.541 -41.6084 -90.6162 -3.16699c-0.422852 216.025 -0.441406 432.055 -0.441406 648.084c-48.7441 0.298828 -97.4844 0.563477 -146.229 0.318359z" />
    <glyph glyph-name="U" unicode="U" horiz-adv-x="491" 
d="M68.7549 134.461c-37.9541 104.024 -48.0264 218.597 -51.6572 328.496c-1.49609 45.3369 -1.50781 90.7529 0.275391 136.078c1.0166 25.8867 1.65918 52.3779 6.81641 77.8574c4.08398 20.1787 40.0322 23.9941 55.0391 21.8818
c18.3535 -2.58398 37.04 -13.4268 32.873 -34.0098c2.49023 12.3047 0.181641 0.25293 -0.321289 -4.27344c-0.646484 -5.84863 -1.11914 -11.7158 -1.55762 -17.583c-1.32227 -17.7305 -2.11523 -35.499 -2.6748 -53.2676
c-1.59082 -50.5654 -1.12207 -101.222 1.31445 -151.753c4.85449 -100.84 14.5566 -205.82 51.9102 -298.696c7.82422 -19.4492 17.2578 -37.9053 28.4482 -55.6201c1.1748 -1.8584 1.73438 -2.77637 1.9873 -3.20703
c0.0302734 0.0185547 0.268555 -0.234375 1.0957 -1.31445c1.08398 -1.41699 2.16797 -2.83008 3.28223 -4.22461c2.72363 -3.4043 5.55762 -6.72168 8.52734 -9.91406c3.16211 -3.40039 6.46387 -6.67188 9.9248 -9.77344
c1.54102 -1.38281 3.13867 -2.68652 4.69922 -4.04688c0.109375 -0.0947266 0.169922 -0.151367 0.268555 -0.238281c0.0830078 -0.0566406 0.131836 -0.0830078 0.222656 -0.143555c4.03125 -2.62988 8.20996 -4.9834 12.2715 -7.54883
c0.816406 -0.517578 1.37598 -0.899414 1.82227 -1.2207c0.499023 -0.128906 1.08105 -0.287109 1.85938 -0.521484c3.77051 -1.14062 7.68457 -2.30762 11.4131 -3.56543c-13.0195 4.38965 -0.336914 0.600586 3.48633 -0.102539
c0.388672 -0.0712891 0.664062 -0.131836 0.989258 -0.196289c0.188477 0.0224609 0.320312 0.0449219 0.546875 0.0673828c1.88184 0.188477 4.12988 0.146484 5.98145 0.138672c1.1748 -0.00390625 1.99805 -0.0302734 2.6709 -0.0683594
c0.59668 0.188477 1.34863 0.400391 2.44824 0.675781c1.03906 0.260742 2.10059 0.491211 3.1543 0.744141c-2.84863 -0.766602 0.619141 -0.245117 2.88184 0.680664c0.695312 0.158203 1.39062 0.339844 2.08203 0.491211
c-0.736328 -0.162109 -1.37891 -0.305664 -1.96484 -0.4375c0.113281 0.0488281 0.234375 0.0976562 0.339844 0.146484c2.19531 1.04688 11.7119 6.03027 10.0986 4.75684c3.50195 2.24023 6.92871 4.55957 10.3105 7.03027
c1.71484 1.25391 2.60645 1.83594 3.06348 2.09277c0.25293 0.392578 0.944336 1.24219 2.53125 2.96484c6.65332 7.23145 12.8418 14.5684 18.5654 22.5703c3.77051 5.27441 9.47168 15.5352 14.5039 26.2002c5.44043 11.542 10.1025 23.4395 14.2246 35.5107
c18.5391 54.2939 26.5332 111.679 31.5166 168.621c10.5215 120.256 6.01465 241.123 2.5166 361.586c-1.13379 38.9521 89.4941 41.8428 90.6162 3.16699c4.18262 -143.834 10.9756 -289.724 -10.8838 -432.538c-15.7656 -103.013 -49.791 -234.953 -168.932 -258.045
c-52.5039 -10.1777 -107.04 2.24414 -147.741 37.2178c-34.0029 29.2158 -55.7158 71.8623 -70.8467 113.334z" />
    <glyph glyph-name="U" unicode="&#xdc;" horiz-adv-x="491" 
d="M68.7549 134.461c-37.9541 104.024 -48.0264 218.597 -51.6572 328.496c-1.49609 45.3369 -1.50781 90.7529 0.275391 136.078c1.0166 25.8867 1.65918 52.3779 6.81641 77.8574c4.08398 20.1787 40.0322 23.9941 55.0391 21.8818
c18.3535 -2.58398 37.04 -13.4268 32.873 -34.0098c2.49023 12.3047 0.181641 0.25293 -0.321289 -4.27344c-0.646484 -5.84863 -1.11914 -11.7158 -1.55762 -17.583c-1.32227 -17.7305 -2.11523 -35.499 -2.6748 -53.2676
c-1.59082 -50.5654 -1.12207 -101.222 1.31445 -151.753c4.85449 -100.84 14.5566 -205.82 51.9102 -298.696c7.82422 -19.4492 17.2578 -37.9053 28.4482 -55.6201c1.1748 -1.8584 1.73438 -2.77637 1.9873 -3.20703
c0.0302734 0.0185547 0.268555 -0.234375 1.0957 -1.31445c1.08398 -1.41699 2.16797 -2.83008 3.28223 -4.22461c2.72363 -3.4043 5.55762 -6.72168 8.52734 -9.91406c3.16211 -3.40039 6.46387 -6.67188 9.9248 -9.77344
c1.54102 -1.38281 3.13867 -2.68652 4.69922 -4.04688c0.109375 -0.0947266 0.169922 -0.151367 0.268555 -0.238281c0.0830078 -0.0566406 0.131836 -0.0830078 0.222656 -0.143555c4.03125 -2.62988 8.20996 -4.9834 12.2715 -7.54883
c0.816406 -0.517578 1.37598 -0.899414 1.82227 -1.2207c0.499023 -0.128906 1.08105 -0.287109 1.85938 -0.521484c3.77051 -1.14062 7.68457 -2.30762 11.4131 -3.56543c-13.0195 4.38965 -0.336914 0.600586 3.48633 -0.102539
c0.388672 -0.0712891 0.664062 -0.131836 0.989258 -0.196289c0.188477 0.0224609 0.320312 0.0449219 0.546875 0.0673828c1.88184 0.188477 4.12988 0.146484 5.98145 0.138672c1.1748 -0.00390625 1.99805 -0.0302734 2.6709 -0.0683594
c0.59668 0.188477 1.34863 0.400391 2.44824 0.675781c1.03906 0.260742 2.10059 0.491211 3.1543 0.744141c-2.84863 -0.766602 0.619141 -0.245117 2.88184 0.680664c0.695312 0.158203 1.39062 0.339844 2.08203 0.491211
c-0.736328 -0.162109 -1.37891 -0.305664 -1.96484 -0.4375c0.113281 0.0488281 0.234375 0.0976562 0.339844 0.146484c2.19531 1.04688 11.7119 6.03027 10.0986 4.75684c3.50195 2.24023 6.92871 4.55957 10.3105 7.03027
c1.71484 1.25391 2.60645 1.83594 3.06348 2.09277c0.25293 0.392578 0.944336 1.24219 2.53125 2.96484c6.65332 7.23145 12.8418 14.5684 18.5654 22.5703c3.77051 5.27441 9.47168 15.5352 14.5039 26.2002c5.44043 11.542 10.1025 23.4395 14.2246 35.5107
c18.5391 54.2939 26.5332 111.679 31.5166 168.621c10.5215 120.256 6.01465 241.123 2.5166 361.586c-1.13379 38.9521 89.4941 41.8428 90.6162 3.16699c4.18262 -143.834 10.9756 -289.724 -10.8838 -432.538c-15.7656 -103.013 -49.791 -234.953 -168.932 -258.045
c-52.5039 -10.1777 -107.04 2.24414 -147.741 37.2178c-34.0029 29.2158 -55.7158 71.8623 -70.8467 113.334z" />
    <glyph glyph-name="U" unicode="&#xdb;" horiz-adv-x="491" 
d="M68.7549 134.461c-37.9541 104.024 -48.0264 218.597 -51.6572 328.496c-1.49609 45.3369 -1.50781 90.7529 0.275391 136.078c1.0166 25.8867 1.65918 52.3779 6.81641 77.8574c4.08398 20.1787 40.0322 23.9941 55.0391 21.8818
c18.3535 -2.58398 37.04 -13.4268 32.873 -34.0098c2.49023 12.3047 0.181641 0.25293 -0.321289 -4.27344c-0.646484 -5.84863 -1.11914 -11.7158 -1.55762 -17.583c-1.32227 -17.7305 -2.11523 -35.499 -2.6748 -53.2676
c-1.59082 -50.5654 -1.12207 -101.222 1.31445 -151.753c4.85449 -100.84 14.5566 -205.82 51.9102 -298.696c7.82422 -19.4492 17.2578 -37.9053 28.4482 -55.6201c1.1748 -1.8584 1.73438 -2.77637 1.9873 -3.20703
c0.0302734 0.0185547 0.268555 -0.234375 1.0957 -1.31445c1.08398 -1.41699 2.16797 -2.83008 3.28223 -4.22461c2.72363 -3.4043 5.55762 -6.72168 8.52734 -9.91406c3.16211 -3.40039 6.46387 -6.67188 9.9248 -9.77344
c1.54102 -1.38281 3.13867 -2.68652 4.69922 -4.04688c0.109375 -0.0947266 0.169922 -0.151367 0.268555 -0.238281c0.0830078 -0.0566406 0.131836 -0.0830078 0.222656 -0.143555c4.03125 -2.62988 8.20996 -4.9834 12.2715 -7.54883
c0.816406 -0.517578 1.37598 -0.899414 1.82227 -1.2207c0.499023 -0.128906 1.08105 -0.287109 1.85938 -0.521484c3.77051 -1.14062 7.68457 -2.30762 11.4131 -3.56543c-13.0195 4.38965 -0.336914 0.600586 3.48633 -0.102539
c0.388672 -0.0712891 0.664062 -0.131836 0.989258 -0.196289c0.188477 0.0224609 0.320312 0.0449219 0.546875 0.0673828c1.88184 0.188477 4.12988 0.146484 5.98145 0.138672c1.1748 -0.00390625 1.99805 -0.0302734 2.6709 -0.0683594
c0.59668 0.188477 1.34863 0.400391 2.44824 0.675781c1.03906 0.260742 2.10059 0.491211 3.1543 0.744141c-2.84863 -0.766602 0.619141 -0.245117 2.88184 0.680664c0.695312 0.158203 1.39062 0.339844 2.08203 0.491211
c-0.736328 -0.162109 -1.37891 -0.305664 -1.96484 -0.4375c0.113281 0.0488281 0.234375 0.0976562 0.339844 0.146484c2.19531 1.04688 11.7119 6.03027 10.0986 4.75684c3.50195 2.24023 6.92871 4.55957 10.3105 7.03027
c1.71484 1.25391 2.60645 1.83594 3.06348 2.09277c0.25293 0.392578 0.944336 1.24219 2.53125 2.96484c6.65332 7.23145 12.8418 14.5684 18.5654 22.5703c3.77051 5.27441 9.47168 15.5352 14.5039 26.2002c5.44043 11.542 10.1025 23.4395 14.2246 35.5107
c18.5391 54.2939 26.5332 111.679 31.5166 168.621c10.5215 120.256 6.01465 241.123 2.5166 361.586c-1.13379 38.9521 89.4941 41.8428 90.6162 3.16699c4.18262 -143.834 10.9756 -289.724 -10.8838 -432.538c-15.7656 -103.013 -49.791 -234.953 -168.932 -258.045
c-52.5039 -10.1777 -107.04 2.24414 -147.741 37.2178c-34.0029 29.2158 -55.7158 71.8623 -70.8467 113.334z" />
    <glyph glyph-name="U" unicode="&#xda;" horiz-adv-x="491" 
d="M68.7549 134.461c-37.9541 104.024 -48.0264 218.597 -51.6572 328.496c-1.49609 45.3369 -1.50781 90.7529 0.275391 136.078c1.0166 25.8867 1.65918 52.3779 6.81641 77.8574c4.08398 20.1787 40.0322 23.9941 55.0391 21.8818
c18.3535 -2.58398 37.04 -13.4268 32.873 -34.0098c2.49023 12.3047 0.181641 0.25293 -0.321289 -4.27344c-0.646484 -5.84863 -1.11914 -11.7158 -1.55762 -17.583c-1.32227 -17.7305 -2.11523 -35.499 -2.6748 -53.2676
c-1.59082 -50.5654 -1.12207 -101.222 1.31445 -151.753c4.85449 -100.84 14.5566 -205.82 51.9102 -298.696c7.82422 -19.4492 17.2578 -37.9053 28.4482 -55.6201c1.1748 -1.8584 1.73438 -2.77637 1.9873 -3.20703
c0.0302734 0.0185547 0.268555 -0.234375 1.0957 -1.31445c1.08398 -1.41699 2.16797 -2.83008 3.28223 -4.22461c2.72363 -3.4043 5.55762 -6.72168 8.52734 -9.91406c3.16211 -3.40039 6.46387 -6.67188 9.9248 -9.77344
c1.54102 -1.38281 3.13867 -2.68652 4.69922 -4.04688c0.109375 -0.0947266 0.169922 -0.151367 0.268555 -0.238281c0.0830078 -0.0566406 0.131836 -0.0830078 0.222656 -0.143555c4.03125 -2.62988 8.20996 -4.9834 12.2715 -7.54883
c0.816406 -0.517578 1.37598 -0.899414 1.82227 -1.2207c0.499023 -0.128906 1.08105 -0.287109 1.85938 -0.521484c3.77051 -1.14062 7.68457 -2.30762 11.4131 -3.56543c-13.0195 4.38965 -0.336914 0.600586 3.48633 -0.102539
c0.388672 -0.0712891 0.664062 -0.131836 0.989258 -0.196289c0.188477 0.0224609 0.320312 0.0449219 0.546875 0.0673828c1.88184 0.188477 4.12988 0.146484 5.98145 0.138672c1.1748 -0.00390625 1.99805 -0.0302734 2.6709 -0.0683594
c0.59668 0.188477 1.34863 0.400391 2.44824 0.675781c1.03906 0.260742 2.10059 0.491211 3.1543 0.744141c-2.84863 -0.766602 0.619141 -0.245117 2.88184 0.680664c0.695312 0.158203 1.39062 0.339844 2.08203 0.491211
c-0.736328 -0.162109 -1.37891 -0.305664 -1.96484 -0.4375c0.113281 0.0488281 0.234375 0.0976562 0.339844 0.146484c2.19531 1.04688 11.7119 6.03027 10.0986 4.75684c3.50195 2.24023 6.92871 4.55957 10.3105 7.03027
c1.71484 1.25391 2.60645 1.83594 3.06348 2.09277c0.25293 0.392578 0.944336 1.24219 2.53125 2.96484c6.65332 7.23145 12.8418 14.5684 18.5654 22.5703c3.77051 5.27441 9.47168 15.5352 14.5039 26.2002c5.44043 11.542 10.1025 23.4395 14.2246 35.5107
c18.5391 54.2939 26.5332 111.679 31.5166 168.621c10.5215 120.256 6.01465 241.123 2.5166 361.586c-1.13379 38.9521 89.4941 41.8428 90.6162 3.16699c4.18262 -143.834 10.9756 -289.724 -10.8838 -432.538c-15.7656 -103.013 -49.791 -234.953 -168.932 -258.045
c-52.5039 -10.1777 -107.04 2.24414 -147.741 37.2178c-34.0029 29.2158 -55.7158 71.8623 -70.8467 113.334z" />
    <glyph glyph-name="V" unicode="V" horiz-adv-x="549" 
d="M192.718 98.3428c-34.9961 101.671 -69.7627 203.418 -105.167 304.945c-30.3906 87.1328 -59.791 175.011 -94.6172 260.504c-16.0908 39.4961 73.0752 52.0391 86.8496 18.2295c17.915 -43.9883 33.8242 -88.8184 49.832 -133.524
c40.0547 -111.883 78.6289 -224.299 117.237 -336.688c8.63672 -25.1465 17.2656 -50.2969 25.9102 -75.4395c66.9814 179.246 128.367 360.581 195.537 539.763c12.9512 34.5498 102.657 27.2168 87.9111 -12.124c-50.958 -135.938 -99.1396 -272.908 -148.308 -409.5
c-18.8076 -52.25 -37.6299 -104.497 -57.0713 -156.514c-10.5713 -28.2783 -19.8574 -58.4502 -34.0479 -85.21c-19.4453 -36.666 -80.374 -37.8896 -95.1006 2.41113c-10.0762 27.5605 -19.415 55.4014 -28.9658 83.1475zM311.332 25.7852
c1.26562 -2.76562 2.75781 -3.34375 0 0z" />
    <glyph glyph-name="W" unicode="W" horiz-adv-x="636" 
d="M635.866 664.004c-22.4678 -111.642 -44.5889 -223.348 -67.7031 -334.856c-19.752 -95.332 -38.5518 -191.302 -63.6191 -285.421c-6.26758 -23.5371 -10.6992 -51.6719 -35.9141 -62.1338c-24.2588 -10.0645 -58.8389 -5.53418 -70.8193 20.1113
c-4.26562 9.13867 -6.74023 19.4268 -9.57031 29.0605c-25.2598 86.0371 -45.1025 173.809 -66.2637 260.915c-1.26953 5.23633 -2.54297 10.4727 -3.8125 15.709c-4.31445 -17.7871 -8.625 -35.5742 -12.958 -53.3535
c-19.3252 -79.2676 -36.0352 -160.462 -61.8242 -237.957c-2.68652 -8.07324 -5.52734 -16.7891 -11.2061 -23.3516c-20.1523 -23.2959 -70.2715 -22.2383 -85.9541 5.79883c-11.7686 21.0361 -15.5918 49.0312 -21.3047 72.0586
c-49.0049 197.558 -85.4287 398.414 -125.578 597.902c-4.13281 20.5371 30.9502 29.6572 44.3135 30.126c19.0264 0.665039 42.1289 -6.19238 46.3076 -26.96c9.67969 -48.1094 19.2529 -96.2451 28.917 -144.358c21.9805 -109.435 44.1309 -218.847 67.8682 -327.915
c2.22168 -10.208 4.46973 -20.4092 6.73242 -30.6104c13.1963 52.6318 25.7852 105.423 38.5889 158.134c9.0791 37.3916 18.1045 74.7939 27.4775 112.109c3.95605 15.7432 6.46094 34.3877 13.0381 49.666c0.792969 8.50391 7.72559 15.165 17.5293 19.5137
c11.7236 6.2832 26.6846 7.81738 39.1406 6.06445c3.39648 -0.479492 7.59375 -1.5752 11.8818 -3.21875c7.48828 -2.35742 13.873 -6.14648 18.04 -11.5117c2.23633 -2.52734 3.85352 -5.33789 4.52637 -8.40527c8.71191 -20.1143 11.8477 -45.0566 17.0156 -65.7871
c20.8281 -83.5439 40.6025 -167.349 61.3965 -250.904c0.525391 -2.1123 1.06543 -4.27344 1.59863 -6.41211c38.623 168.479 70.1582 338.752 104.244 508.114c4.06152 20.1787 40.0508 23.9912 55.0381 21.8828c18.3691 -2.58398 37.0176 -13.4229 32.873 -34.0098z
M232.747 17.3418c0.0302734 -3.01074 4.0459 2.0293 -0.751953 1.84375c0.385742 -0.661133 0.748047 -1.33398 0.751953 -1.84375zM402.956 13.7031c0 0.37793 0.645508 0.876953 0.675781 1.24707c0.0683594 0.800781 0.529297 1.71094 1.0127 2.61035
c-1.03906 -1.28027 -1.68848 -2.57617 -1.68848 -3.85742z" />
    <glyph glyph-name="X" unicode="X" horiz-adv-x="498" 
d="M379.646 8.43262c-46.1982 72.3418 -91.5771 145.202 -136.229 218.496c-47.6299 -76.4717 -95.8115 -152.604 -144.602 -228.342c-19.3623 -30.0586 -105.434 -14.5645 -79.252 26.0801c59.8213 92.8604 118.688 186.325 176.707 280.312
c-68.3105 114.033 -134.812 229.15 -199.355 345.367c-20.0127 36.0352 68.9756 50.4141 86.8496 18.2285c52.7529 -94.9805 106.847 -189.205 162.116 -282.734c56.9883 93.458 113.146 187.426 168.361 281.953c11.0127 18.8525 34.2021 24.8145 55.0381 21.8828
c13.1553 -1.84766 43.8027 -15.2939 32.873 -34.0068c-68.3828 -117.066 -138.159 -233.317 -209.225 -348.771c56.6104 -94.1719 114.422 -187.626 173.567 -280.237c11.7646 -18.418 -17.3037 -33.4277 -30.417 -36.2197
c-20.0088 -4.25781 -44.7852 -0.245117 -56.4326 17.9912z" />
    <glyph glyph-name="Y" unicode="Y" horiz-adv-x="505" 
d="M508.103 661.934c-72.7354 -65.1641 -145.062 -130.812 -216.577 -197.317v-65.1152c-0.00390625 -130.411 0.592773 -260.841 -0.313477 -391.248c-0.272461 -39.2393 -90.8848 -41.5215 -90.6162 -3.16699c0.166016 23.5449 0.147461 47.0898 0.177734 70.6348
c0.162109 128.918 0.135742 257.84 0.135742 386.759c-4.24316 3.4043 -8.33105 6.99707 -12.3506 10.4385c-16.1094 13.79 -31.5801 28.3467 -47.0508 42.8359c-48.2305 45.1699 -95.792 91.0508 -143.845 136.41c-15.8447 14.9531 -0.400391 33.25 14.8896 39.6201
c19.3545 8.06641 46.5371 6.84961 62.3486 -8.07324c45.3633 -42.8164 90.3184 -86.0713 135.753 -128.812c11.7422 -11.0469 23.5557 -22.0225 35.4902 -32.8652c60.4639 55.8057 121.427 111.078 182.707 165.98c16.5664 14.8477 40.2432 19.6084 61.6309 12.4072
c14.2314 -4.79102 33.9033 -23.9004 17.6201 -38.4873zM273.954 497.675c3.6084 -1.36035 7.7627 -2.41406 -0.118164 0.102539c0.0380859 -0.0341797 0.0800781 -0.0683594 0.118164 -0.102539z" />
    <glyph glyph-name="Y" unicode="&#x178;" horiz-adv-x="505" 
d="M508.103 661.934c-72.7354 -65.1641 -145.062 -130.812 -216.577 -197.317v-65.1152c-0.00390625 -130.411 0.592773 -260.841 -0.313477 -391.248c-0.272461 -39.2393 -90.8848 -41.5215 -90.6162 -3.16699c0.166016 23.5449 0.147461 47.0898 0.177734 70.6348
c0.162109 128.918 0.135742 257.84 0.135742 386.759c-4.24316 3.4043 -8.33105 6.99707 -12.3506 10.4385c-16.1094 13.79 -31.5801 28.3467 -47.0508 42.8359c-48.2305 45.1699 -95.792 91.0508 -143.845 136.41c-15.8447 14.9531 -0.400391 33.25 14.8896 39.6201
c19.3545 8.06641 46.5371 6.84961 62.3486 -8.07324c45.3633 -42.8164 90.3184 -86.0713 135.753 -128.812c11.7422 -11.0469 23.5557 -22.0225 35.4902 -32.8652c60.4639 55.8057 121.427 111.078 182.707 165.98c16.5664 14.8477 40.2432 19.6084 61.6309 12.4072
c14.2314 -4.79102 33.9033 -23.9004 17.6201 -38.4873zM273.954 497.675c3.6084 -1.36035 7.7627 -2.41406 -0.118164 0.102539c0.0380859 -0.0341797 0.0800781 -0.0683594 0.118164 -0.102539z" />
    <glyph glyph-name="Y" unicode="&#xdd;" horiz-adv-x="505" 
d="M508.103 661.934c-72.7354 -65.1641 -145.062 -130.812 -216.577 -197.317v-65.1152c-0.00390625 -130.411 0.592773 -260.841 -0.313477 -391.248c-0.272461 -39.2393 -90.8848 -41.5215 -90.6162 -3.16699c0.166016 23.5449 0.147461 47.0898 0.177734 70.6348
c0.162109 128.918 0.135742 257.84 0.135742 386.759c-4.24316 3.4043 -8.33105 6.99707 -12.3506 10.4385c-16.1094 13.79 -31.5801 28.3467 -47.0508 42.8359c-48.2305 45.1699 -95.792 91.0508 -143.845 136.41c-15.8447 14.9531 -0.400391 33.25 14.8896 39.6201
c19.3545 8.06641 46.5371 6.84961 62.3486 -8.07324c45.3633 -42.8164 90.3184 -86.0713 135.753 -128.812c11.7422 -11.0469 23.5557 -22.0225 35.4902 -32.8652c60.4639 55.8057 121.427 111.078 182.707 165.98c16.5664 14.8477 40.2432 19.6084 61.6309 12.4072
c14.2314 -4.79102 33.9033 -23.9004 17.6201 -38.4873zM273.954 497.675c3.6084 -1.36035 7.7627 -2.41406 -0.118164 0.102539c0.0380859 -0.0341797 0.0800781 -0.0683594 0.118164 -0.102539z" />
    <glyph glyph-name="Z" unicode="Z" horiz-adv-x="439" 
d="M39.4795 -21.8711c-13.4268 -0.204102 -58.5596 9.9541 -44.9512 34.6094c14.999 27.168 29.9941 54.3398 44.9932 81.5078c64.7109 117.236 129.425 234.47 194.136 351.706c34.4971 62.4961 68.998 124.996 103.495 187.492
c-88.7314 0.521484 -177.474 0.50293 -266.201 -0.396484c-16.0303 -0.162109 -45.5596 5.64453 -46.3037 26.96c-0.72168 20.7188 27.8555 29.96 44.3125 30.126c109.994 1.11426 220.019 0.925781 330.013 -0.0410156
c13.2764 -0.117188 58.6807 -9.73633 44.9512 -34.6074c-14.999 -27.168 -29.9941 -54.3398 -44.9932 -81.5078c-64.7139 -117.236 -129.428 -234.47 -194.139 -351.706c-34.2256 -62.002 -68.4512 -124.008 -102.677 -186.014
c87.0693 1.44727 174.191 2.86816 261.234 1.79102c16.0342 -0.200195 45.5518 -5.38379 46.3076 -26.9639c0.713867 -20.4658 -27.8555 -30.3301 -44.3125 -30.126c-108.581 1.34082 -217.295 -1.19824 -325.865 -2.83008z" />
    <glyph glyph-name="bracketleft" unicode="[" horiz-adv-x="152" 
d="M284.762 -165.487c16.0342 -0.166016 45.5518 -5.40723 46.3115 -26.9609c0.713867 -20.4883 -27.8594 -30.2959 -44.3125 -30.126c-63.4258 0.657227 -126.803 0.699219 -190.188 -1.56738c-26.8281 -8.93555 -66.0938 -1.3457 -66.1279 23.9561
c-0.0908203 71.0234 -0.173828 142.043 -0.234375 213.066c-0.230469 264.626 -0.211914 529.248 -0.211914 793.87c0 22.5283 29.9375 32.873 55.3975 30.3193c66.4482 2.61426 132.886 2.58789 199.372 1.90039c16.0342 -0.162109 45.5518 -5.40234 46.3037 -26.96
c0.713867 -20.4883 -27.8594 -30.2959 -44.3125 -30.126c-55.4053 0.570312 -110.776 0.671875 -166.144 -0.816406c0 -75.6289 0 -151.254 0.00390625 -226.883c0.0146484 -240.141 0.113281 -480.281 0.412109 -720.422c54.5625 1.4209 109.129 1.31543 163.729 0.749023z
" />
    <glyph glyph-name="backslash" unicode="\" horiz-adv-x="551" 
d="M497.656 -155.736c20.1445 -35.8799 -68.8271 -50.3262 -86.8486 -18.2314c-26.752 47.6445 -46.0273 100.038 -65.9492 150.762c-58.458 148.84 -111.351 299.913 -163.699 450.986c-44.2334 127.656 -87.7529 255.581 -129.78 383.981
c-13.4385 41.0557 75.625 52.5225 86.8496 18.2295c20.4395 -62.4473 41.3281 -124.747 62.3721 -186.994c52.5752 -155.505 106.182 -310.688 162.319 -464.946c25.1123 -68.999 50.6553 -137.869 77.9102 -206.056c17.209 -43.0508 34.0781 -87.2158 56.8262 -127.731z
" />
    <glyph glyph-name="bracketright" unicode="]" horiz-adv-x="152" 
d="M68.7656 836.883c24.7314 2.98047 52.3174 -5.76465 52.3174 -26.9668c0 -85.2402 0 -170.484 -0.00390625 -255.729c-0.0146484 -250.401 -0.113281 -500.807 -0.442383 -751.208c-0.0341797 -27.3721 -44.2031 -36.7646 -70.8535 -26.8779
c-61.1436 2.0293 -122.28 1.95703 -183.462 1.32227c-16.0342 -0.169922 -45.5635 5.64844 -46.3076 26.96c-0.72168 20.7227 27.8555 29.9561 44.3125 30.126c55.2656 0.574219 110.501 0.675781 165.732 -0.801758c0.0722656 59.7236 0.144531 119.447 0.197266 179.171
c0.222656 256.084 0.210938 512.164 0.210938 768.244c-54.7021 1.43164 -109.408 1.32617 -164.145 0.759766c-16.0342 -0.166016 -45.5635 5.64844 -46.3076 26.96c-0.72168 20.7227 27.8555 29.9561 44.3125 30.126c68.1787 0.706055 136.305 0.740234 204.438 -2.08594z
" />
    <glyph glyph-name="asciicircum" unicode="^" horiz-adv-x="385" 
d="M365.35 433.481c14.9795 -40.2061 -74.1621 -52.29 -86.8564 -18.2305c-21.5312 57.8008 -43.3721 115.495 -66.4746 172.688c-6.29004 15.5771 -12.667 31.1279 -19.2559 46.5918c-7.04199 -15.0518 -13.9102 -30.1826 -20.665 -45.3594
c-24.5918 -55.2422 -51.2725 -112.071 -66.3096 -170.865c-8.99902 -35.1924 -98.5615 -29.5215 -87.9111 12.124c13.6006 53.1836 37.2285 104.565 59.168 154.688c19.0791 43.5869 38.1738 87.9336 61.7148 129.356c10.3477 18.2061 19.4531 31.5957 41.7666 36.3066
c30.0283 6.33984 52.6172 -6.10547 67.3135 -30.7568c25.0186 -41.9629 41.6836 -90.1523 59.6523 -135.376c19.9219 -50.1426 39.0234 -100.609 57.8574 -151.167zM158.979 705.363c0.0117188 -0.0869141 0.0302734 -0.132812 0.0449219 -0.211914
c0.0947266 -0.0791016 0.193359 -0.158203 0.322266 -0.245117c-0.298828 0.790039 -0.495117 1.50391 -0.589844 1.93848c0.0527344 -0.298828 0.121094 -0.733398 0.222656 -1.48145zM159.04 705.067c0.332031 -1.9834 0.958984 -2.04297 0.819336 -1.3291
c-0.147461 0.283203 -0.283203 0.570312 -0.400391 0.857422c-0.105469 0.151367 -0.263672 0.313477 -0.418945 0.47168z" />
    <glyph glyph-name="underscore" unicode="_" horiz-adv-x="504" 
d="M457.158 9.29297c16.0342 -0.135742 45.5557 -5.4248 46.3076 -26.9639c0.713867 -20.5107 -27.8555 -30.2656 -44.3125 -30.126c-137.948 1.17871 -275.885 1.37109 -413.833 1.37109c-16.0342 0 -45.5596 5.52734 -46.3076 26.9639
c-0.717773 20.6055 27.8555 30.126 44.3125 30.126c137.952 0 275.889 -0.196289 413.833 -1.37109z" />
    <glyph glyph-name="grave" unicode="`" horiz-adv-x="191" 
d="M171.164 533.921c18.3467 -37.709 -70.7793 -51.2686 -86.8477 -18.2295c-38.6191 79.3848 -66.3389 163.11 -83.9746 249.582c-4.18652 20.5225 30.9951 29.6611 44.3125 30.126c19.0645 0.668945 42.0693 -6.19922 46.3047 -26.96
c16.5859 -81.334 43.9092 -159.902 80.2051 -234.519z" />
    <glyph glyph-name="a" unicode="a" horiz-adv-x="489" 
d="M28.3701 -27.3223c-18.6631 2.62598 -36.623 13.3848 -32.8711 34.0088c20.5566 113.055 54.9668 222.818 84.8213 333.613c14.1074 52.3604 28.4492 104.683 44.7852 156.404c0.291016 0.929688 0.589844 1.85938 0.884766 2.78906
c0.279297 1.33789 0.691406 2.62207 1.22363 3.85352c14.6553 46.2773 30.0889 93.1855 53.6562 135.737c12.1689 21.9736 25.335 43.9961 49.2197 54.6348c26.8086 11.9424 62.1338 9.33594 84.8779 -10c16.623 -14.1299 24.8857 -35.7705 32.6953 -55.5527
c8.93164 -22.6191 16.208 -45.8584 22.6006 -69.3125c25.2451 -92.6035 44.4375 -187.338 65.6777 -280.946c21.2969 -93.8359 41.6572 -188.083 54.96 -283.438c2.90137 -20.7939 -29.9072 -29.623 -44.3125 -30.126c-18.0781 -0.630859 -43.3877 6.04492 -46.3047 26.9639
c-15.9316 114.226 -41.7695 226.891 -67.7471 339.167c-10.6992 46.2588 -21.2705 92.5479 -31.917 138.817c-30.9727 -0.733398 -61.8965 -1.49609 -92.877 -1.70801c-13.8164 -44.9971 -26.2988 -90.3975 -38.5508 -135.84
c-30.1904 -111.967 -65.0088 -222.932 -85.7842 -337.184c-3.67188 -20.1895 -40.3721 -23.9453 -55.0381 -21.8828zM248.359 584.389c-8.20996 -19.5059 -15.3838 -39.4463 -22.1611 -59.5039c20.3223 0.287109 40.6367 0.744141 60.959 1.22754
c-4.94922 19.4385 -10.3896 38.752 -16.8271 57.7627c-3.07129 9.06738 -6.44141 18.0215 -9.9668 26.9189c-4.27344 -8.6748 -8.25586 -17.4932 -12.0039 -26.4053z" />
    <glyph glyph-name="a" unicode="&#xe5;" horiz-adv-x="489" 
d="M28.3701 -27.3223c-18.6631 2.62598 -36.623 13.3848 -32.8711 34.0088c20.5566 113.055 54.9668 222.818 84.8213 333.613c14.1074 52.3604 28.4492 104.683 44.7852 156.404c0.291016 0.929688 0.589844 1.85938 0.884766 2.78906
c0.279297 1.33789 0.691406 2.62207 1.22363 3.85352c14.6553 46.2773 30.0889 93.1855 53.6562 135.737c12.1689 21.9736 25.335 43.9961 49.2197 54.6348c26.8086 11.9424 62.1338 9.33594 84.8779 -10c16.623 -14.1299 24.8857 -35.7705 32.6953 -55.5527
c8.93164 -22.6191 16.208 -45.8584 22.6006 -69.3125c25.2451 -92.6035 44.4375 -187.338 65.6777 -280.946c21.2969 -93.8359 41.6572 -188.083 54.96 -283.438c2.90137 -20.7939 -29.9072 -29.623 -44.3125 -30.126c-18.0781 -0.630859 -43.3877 6.04492 -46.3047 26.9639
c-15.9316 114.226 -41.7695 226.891 -67.7471 339.167c-10.6992 46.2588 -21.2705 92.5479 -31.917 138.817c-30.9727 -0.733398 -61.8965 -1.49609 -92.877 -1.70801c-13.8164 -44.9971 -26.2988 -90.3975 -38.5508 -135.84
c-30.1904 -111.967 -65.0088 -222.932 -85.7842 -337.184c-3.67188 -20.1895 -40.3721 -23.9453 -55.0381 -21.8828zM248.359 584.389c-8.20996 -19.5059 -15.3838 -39.4463 -22.1611 -59.5039c20.3223 0.287109 40.6367 0.744141 60.959 1.22754
c-4.94922 19.4385 -10.3896 38.752 -16.8271 57.7627c-3.07129 9.06738 -6.44141 18.0215 -9.9668 26.9189c-4.27344 -8.6748 -8.25586 -17.4932 -12.0039 -26.4053z" />
    <glyph glyph-name="a" unicode="&#xe4;" horiz-adv-x="489" 
d="M28.3701 -27.3223c-18.6631 2.62598 -36.623 13.3848 -32.8711 34.0088c20.5566 113.055 54.9668 222.818 84.8213 333.613c14.1074 52.3604 28.4492 104.683 44.7852 156.404c0.291016 0.929688 0.589844 1.85938 0.884766 2.78906
c0.279297 1.33789 0.691406 2.62207 1.22363 3.85352c14.6553 46.2773 30.0889 93.1855 53.6562 135.737c12.1689 21.9736 25.335 43.9961 49.2197 54.6348c26.8086 11.9424 62.1338 9.33594 84.8779 -10c16.623 -14.1299 24.8857 -35.7705 32.6953 -55.5527
c8.93164 -22.6191 16.208 -45.8584 22.6006 -69.3125c25.2451 -92.6035 44.4375 -187.338 65.6777 -280.946c21.2969 -93.8359 41.6572 -188.083 54.96 -283.438c2.90137 -20.7939 -29.9072 -29.623 -44.3125 -30.126c-18.0781 -0.630859 -43.3877 6.04492 -46.3047 26.9639
c-15.9316 114.226 -41.7695 226.891 -67.7471 339.167c-10.6992 46.2588 -21.2705 92.5479 -31.917 138.817c-30.9727 -0.733398 -61.8965 -1.49609 -92.877 -1.70801c-13.8164 -44.9971 -26.2988 -90.3975 -38.5508 -135.84
c-30.1904 -111.967 -65.0088 -222.932 -85.7842 -337.184c-3.67188 -20.1895 -40.3721 -23.9453 -55.0381 -21.8828zM248.359 584.389c-8.20996 -19.5059 -15.3838 -39.4463 -22.1611 -59.5039c20.3223 0.287109 40.6367 0.744141 60.959 1.22754
c-4.94922 19.4385 -10.3896 38.752 -16.8271 57.7627c-3.07129 9.06738 -6.44141 18.0215 -9.9668 26.9189c-4.27344 -8.6748 -8.25586 -17.4932 -12.0039 -26.4053z" />
    <glyph glyph-name="a" unicode="&#xe3;" horiz-adv-x="489" 
d="M28.3701 -27.3223c-18.6631 2.62598 -36.623 13.3848 -32.8711 34.0088c20.5566 113.055 54.9668 222.818 84.8213 333.613c14.1074 52.3604 28.4492 104.683 44.7852 156.404c0.291016 0.929688 0.589844 1.85938 0.884766 2.78906
c0.279297 1.33789 0.691406 2.62207 1.22363 3.85352c14.6553 46.2773 30.0889 93.1855 53.6562 135.737c12.1689 21.9736 25.335 43.9961 49.2197 54.6348c26.8086 11.9424 62.1338 9.33594 84.8779 -10c16.623 -14.1299 24.8857 -35.7705 32.6953 -55.5527
c8.93164 -22.6191 16.208 -45.8584 22.6006 -69.3125c25.2451 -92.6035 44.4375 -187.338 65.6777 -280.946c21.2969 -93.8359 41.6572 -188.083 54.96 -283.438c2.90137 -20.7939 -29.9072 -29.623 -44.3125 -30.126c-18.0781 -0.630859 -43.3877 6.04492 -46.3047 26.9639
c-15.9316 114.226 -41.7695 226.891 -67.7471 339.167c-10.6992 46.2588 -21.2705 92.5479 -31.917 138.817c-30.9727 -0.733398 -61.8965 -1.49609 -92.877 -1.70801c-13.8164 -44.9971 -26.2988 -90.3975 -38.5508 -135.84
c-30.1904 -111.967 -65.0088 -222.932 -85.7842 -337.184c-3.67188 -20.1895 -40.3721 -23.9453 -55.0381 -21.8828zM248.359 584.389c-8.20996 -19.5059 -15.3838 -39.4463 -22.1611 -59.5039c20.3223 0.287109 40.6367 0.744141 60.959 1.22754
c-4.94922 19.4385 -10.3896 38.752 -16.8271 57.7627c-3.07129 9.06738 -6.44141 18.0215 -9.9668 26.9189c-4.27344 -8.6748 -8.25586 -17.4932 -12.0039 -26.4053z" />
    <glyph glyph-name="a" unicode="&#xe2;" horiz-adv-x="489" 
d="M28.3701 -27.3223c-18.6631 2.62598 -36.623 13.3848 -32.8711 34.0088c20.5566 113.055 54.9668 222.818 84.8213 333.613c14.1074 52.3604 28.4492 104.683 44.7852 156.404c0.291016 0.929688 0.589844 1.85938 0.884766 2.78906
c0.279297 1.33789 0.691406 2.62207 1.22363 3.85352c14.6553 46.2773 30.0889 93.1855 53.6562 135.737c12.1689 21.9736 25.335 43.9961 49.2197 54.6348c26.8086 11.9424 62.1338 9.33594 84.8779 -10c16.623 -14.1299 24.8857 -35.7705 32.6953 -55.5527
c8.93164 -22.6191 16.208 -45.8584 22.6006 -69.3125c25.2451 -92.6035 44.4375 -187.338 65.6777 -280.946c21.2969 -93.8359 41.6572 -188.083 54.96 -283.438c2.90137 -20.7939 -29.9072 -29.623 -44.3125 -30.126c-18.0781 -0.630859 -43.3877 6.04492 -46.3047 26.9639
c-15.9316 114.226 -41.7695 226.891 -67.7471 339.167c-10.6992 46.2588 -21.2705 92.5479 -31.917 138.817c-30.9727 -0.733398 -61.8965 -1.49609 -92.877 -1.70801c-13.8164 -44.9971 -26.2988 -90.3975 -38.5508 -135.84
c-30.1904 -111.967 -65.0088 -222.932 -85.7842 -337.184c-3.67188 -20.1895 -40.3721 -23.9453 -55.0381 -21.8828zM248.359 584.389c-8.20996 -19.5059 -15.3838 -39.4463 -22.1611 -59.5039c20.3223 0.287109 40.6367 0.744141 60.959 1.22754
c-4.94922 19.4385 -10.3896 38.752 -16.8271 57.7627c-3.07129 9.06738 -6.44141 18.0215 -9.9668 26.9189c-4.27344 -8.6748 -8.25586 -17.4932 -12.0039 -26.4053z" />
    <glyph glyph-name="a" unicode="&#xe1;" horiz-adv-x="489" 
d="M28.3701 -27.3223c-18.6631 2.62598 -36.623 13.3848 -32.8711 34.0088c20.5566 113.055 54.9668 222.818 84.8213 333.613c14.1074 52.3604 28.4492 104.683 44.7852 156.404c0.291016 0.929688 0.589844 1.85938 0.884766 2.78906
c0.279297 1.33789 0.691406 2.62207 1.22363 3.85352c14.6553 46.2773 30.0889 93.1855 53.6562 135.737c12.1689 21.9736 25.335 43.9961 49.2197 54.6348c26.8086 11.9424 62.1338 9.33594 84.8779 -10c16.623 -14.1299 24.8857 -35.7705 32.6953 -55.5527
c8.93164 -22.6191 16.208 -45.8584 22.6006 -69.3125c25.2451 -92.6035 44.4375 -187.338 65.6777 -280.946c21.2969 -93.8359 41.6572 -188.083 54.96 -283.438c2.90137 -20.7939 -29.9072 -29.623 -44.3125 -30.126c-18.0781 -0.630859 -43.3877 6.04492 -46.3047 26.9639
c-15.9316 114.226 -41.7695 226.891 -67.7471 339.167c-10.6992 46.2588 -21.2705 92.5479 -31.917 138.817c-30.9727 -0.733398 -61.8965 -1.49609 -92.877 -1.70801c-13.8164 -44.9971 -26.2988 -90.3975 -38.5508 -135.84
c-30.1904 -111.967 -65.0088 -222.932 -85.7842 -337.184c-3.67188 -20.1895 -40.3721 -23.9453 -55.0381 -21.8828zM248.359 584.389c-8.20996 -19.5059 -15.3838 -39.4463 -22.1611 -59.5039c20.3223 0.287109 40.6367 0.744141 60.959 1.22754
c-4.94922 19.4385 -10.3896 38.752 -16.8271 57.7627c-3.07129 9.06738 -6.44141 18.0215 -9.9668 26.9189c-4.27344 -8.6748 -8.25586 -17.4932 -12.0039 -26.4053z" />
    <glyph glyph-name="b" unicode="b" horiz-adv-x="458" 
d="M41.2998 -25.0596c-6.87598 4.54492 -11.2988 11.0322 -11.2988 19.5098c0 224.986 0.0078125 449.97 0.446289 674.953c0.0449219 22.2334 29.2119 32.6045 54.4414 30.4209c46.3828 1.625 92.3955 3.41211 138.869 0.642578
c51.0527 -3.04102 109.703 -10.6006 150.752 -43.8252c36.6738 -29.6846 35.6045 -80.4727 3.90625 -113.682c-23.0576 -24.1572 -54.5781 -39.1973 -87.5645 -49.0352c36.2998 -13.8086 70.3252 -34.3271 96.2236 -63.2559
c45.8389 -51.2002 61.3213 -120.214 60.8301 -187.448c-0.65332 -89.0635 -21.9121 -177.243 -100.325 -229.464c-81.3457 -54.1699 -186.908 -56.3428 -280.888 -49.2441c-8.01367 0.608398 -18.2178 4.35645 -25.3926 10.4277zM206.878 455.456
c6.55469 -1.59766 2.14551 -0.408203 0 0zM354.955 287.007c-6.09766 53.3652 -26.2217 99.3789 -66.5068 132.463c-0.543945 0.446289 -0.974609 0.805664 -1.33398 1.10742c-0.418945 0.283203 -0.917969 0.619141 -1.60156 1.09473
c-2.61035 1.80957 -5.22852 3.59668 -7.90723 5.30469c-3.98242 2.53906 -8.05469 4.93066 -12.1953 7.20117c-4.44336 2.43262 -8.97656 4.66895 -13.5557 6.83398c-0.313477 0.121094 -0.604492 0.234375 -0.99707 0.385742
c-2.39941 0.933594 -4.77246 1.91602 -7.17871 2.82227c-9.97754 3.7666 -20.167 6.94434 -30.4814 9.65332c-2.14258 0.5625 -4.2959 1.08008 -6.44922 1.60547c-0.0117188 0.00390625 -0.0234375 0.0078125 -0.0351562 0.0078125
c-4.79102 0.857422 -9.54395 1.92676 -14.3379 2.77637c-23.707 4.19727 -47.6641 5.90527 -71.5449 8.3457c-0.139648 -149.339 -0.204102 -298.682 -0.204102 -448.021c69.5537 -2.51953 144.839 5.84473 191.634 59.9805
c47.1572 54.5547 50.5049 140.063 42.6953 208.438zM198.613 644.698c-1.16406 0.0449219 -1.59766 0.0605469 0 0zM179.773 645.187c-19.6123 0.279297 -39.1709 -0.304688 -58.7266 -1.06445c-0.0683594 -37.7275 -0.0830078 -75.4551 -0.12793 -113.183
c0.499023 -0.0644531 0.998047 -0.125 1.49707 -0.197266c0.646484 -0.0908203 1.30371 -0.121094 1.96094 -0.155273c8.48535 0.21875 17.0537 -0.321289 25.5508 -0.0761719c11.3379 0.329102 22.668 1.02832 33.9639 2.05566
c3.05273 0.279297 6.09766 0.619141 9.15039 0.90625c0.162109 0.0146484 0.263672 0.0224609 0.415039 0.0371094c0.211914 0.0302734 0.389648 0.0605469 0.672852 0.0986328c6.3584 0.891602 12.7051 1.80176 19.0332 2.89746
c11.4697 1.9873 22.876 4.38672 34.1348 7.36426c2.44434 0.646484 4.88086 1.33398 7.31055 2.04395c0.532227 0.188477 1.16309 0.415039 1.97559 0.706055c4.62402 1.65137 9.24805 3.28711 13.7891 5.16113c14.957 6.17383 25.7021 11.5576 35.6426 25.3398
c-0.970703 -0.974609 3.51758 7.22754 4.36426 9.30176c0.505859 1.23926 0.898438 2.65234 1.24609 4.03906c0.113281 0.657227 0.385742 2.11523 0.423828 2.56445c0.34375 4.09961 0.196289 8.05176 -0.242188 12.1279
c-0.0341797 0.291016 -0.173828 0.959961 -0.329102 1.64746c-0.513672 1.20898 -1.49609 3.8877 -1.52637 3.94434c-0.963867 1.71484 -1.8252 3.4834 -2.7998 5.19824c-0.139648 0.139648 -0.25293 0.25293 -0.415039 0.422852
c-1.61719 1.69238 -3.26855 3.30176 -4.96094 4.87695c-0.105469 -0.113281 -4.72949 3.43848 -6.38379 4.40234c-2.01367 1.16699 -4.0957 2.17578 -6.14746 3.26758c-4.70703 1.83203 -9.42578 3.54395 -14.2617 5.01758
c-1.93457 0.589844 -11.5537 3.00391 -10.5488 2.89453c-8.9541 1.8623 -17.9951 3.31348 -27.0625 4.48047c-11.2588 1.44727 -22.5557 2.37305 -33.875 3.15527c-0.993164 0.0683594 -2.94238 0.155273 -4.33691 0.21582
c-1.47754 0.0566406 -2.95117 0.117188 -4.42871 0.166016c-4.9873 0.162109 -9.9707 0.271484 -14.958 0.342773z" />
    <glyph glyph-name="c" unicode="c" horiz-adv-x="479" 
d="M153.959 -16.4004c-40.3643 21.1494 -71.3047 57.9131 -93.8252 96.8115c-56.0176 96.7744 -56.6865 225.73 -38.5898 333.118c10.4316 61.9072 29.0459 122.213 61.1025 176.507c31.4258 53.2285 72.7988 99.1465 135.258 113.82
c59.3643 13.9443 130.206 0.335938 173.019 -45.2461c38.2871 -40.7578 55.4316 -96.7295 66.3994 -150.238c4.20508 -20.5186 -31.0098 -29.6611 -44.3125 -30.126c-19.083 -0.665039 -42.0537 6.20703 -46.3076 26.9639
c-9.17285 44.7627 -25.041 100.006 -61.9072 130.445c-33.9189 28.0068 -73.3613 16.5068 -101.7 -13.8574c-67.7627 -72.6025 -93.9482 -182.774 -99.0713 -279.179c-4.68066 -88.085 2.01074 -182.317 51.5488 -257.928
c16.6914 -25.4795 42.5557 -52.1748 68.5713 -61.7939c7.50684 -2.77344 6.52832 -2.5127 11.8369 -3.41602c-0.208008 0.0341797 9.50195 -0.717773 9.57715 -0.933594c4.28809 0.0146484 8.60254 0.301758 12.8604 0.615234
c1.59082 0.117188 2.74316 0.192383 3.58203 0.234375c0.740234 0.139648 1.70703 0.30957 2.97656 0.521484c4.34473 0.725586 8.66699 1.55273 12.9551 2.56543c-0.589844 -0.139648 6.42969 1.89258 7.8877 2.22168c2.76562 1.13379 9.91016 4.07324 13.9941 6.03418
c-1.40137 -0.543945 7.79785 5.07031 8.77246 5.75781c2.56934 1.81348 5.11914 3.72852 7.53711 5.75781c0.0908203 0.275391 5.39551 5.41016 5.2373 5.23633c2.52344 2.79199 5.05469 5.54199 7.43066 8.46582c8.56445 10.541 14.4316 20.9531 20.1895 33.6621
c16.3926 36.1826 24.6396 75.8369 30.9414 114.849c3.4043 21.0703 24.6104 29.4385 44.3125 30.126c13.4424 0.472656 49.6289 -6.40723 46.3076 -26.96c-8.3457 -51.6797 -17.7686 -106.145 -44.9287 -151.791c-26.0273 -43.7422 -64.5752 -71.6846 -113.479 -85.4258
c-52.2314 -14.6738 -109.756 -12.1846 -158.176 13.1816z" />
    <glyph glyph-name="d" unicode="d" horiz-adv-x="458" 
d="M372.48 79.959c-68.5264 -90.5596 -181.928 -118.204 -290.153 -115.673c-24.2773 -2.76953 -51.0713 5.74609 -51.8154 26.2197c-0.0683594 0.766602 -0.0986328 1.54492 -0.0644531 2.33789c-0.43457 223.215 -0.446289 446.426 -0.446289 669.641
c0 1.70801 0.230469 3.32129 0.55957 4.88965c-0.0751953 0.604492 -0.204102 1.18262 -0.226562 1.80566c-0.755859 21.6895 27.9229 28.543 44.3125 30.126c111.812 10.7939 240.22 -5.16113 311.273 -102.31c60.1768 -82.2744 64.7441 -196.209 58.4805 -294.393
c-5.02148 -78.708 -23.5684 -158.742 -71.9199 -222.645zM282.401 92.7129c8.43262 9.66016 16.3047 19.9961 23.0254 30.9219c35.7402 58.167 48.0869 135.217 49.5947 205.134c1.83203 85.0557 -1.20898 186.587 -60.1582 254.278
c-45.0986 51.7861 -109.729 63.4492 -174.239 61.9414c0 -207.94 0.0380859 -415.885 0.412109 -623.825c7.20117 0.370117 14.3828 0.956055 21.5684 1.61328c-5.84863 -0.487305 8.75391 1.16699 11.7881 1.67676c6.51758 1.09961 13.0049 2.38379 19.4463 3.87598
c5.60645 1.2959 11.1338 2.84863 16.6875 4.35254c-12.3281 -3.33594 0.641602 0.298828 3.12793 1.16406c2.76953 0.963867 5.52344 1.96875 8.2627 3.01855c6.45703 2.47852 12.8232 5.19824 19.0645 8.17871c1.80176 0.861328 3.58496 1.75684 5.37598 2.64453
c0.143555 0.0722656 0.226562 0.110352 0.355469 0.174805c0.351562 0.21582 0.755859 0.458008 1.26562 0.760742c9.77051 5.78809 19.2607 11.875 28.2373 18.8457c8.8252 6.85742 4.34473 2.90918 12.4717 10.7861c4.77148 4.62402 9.34668 9.45215 13.7139 14.458z" />
    <glyph glyph-name="e" unicode="e" horiz-adv-x="384" 
d="M349.221 635.502c-76.0371 2.93164 -152.104 2.86328 -228.187 3.38086c-0.0605469 -35.1475 -0.0751953 -70.291 -0.120117 -105.438c43.3643 0.513672 86.6416 2.04004 130.082 -0.592773c15.875 -0.963867 40.1416 -14.7617 32.873 -34.0107
c-7.82422 -20.7227 -36.5791 -23.001 -55.0391 -21.8828c-35.9404 2.17969 -71.9717 0.460938 -107.98 -0.339844c-0.151367 -151.685 -0.219727 -303.369 -0.219727 -455.054c75.542 0.388672 151.058 2.91211 226.592 0.0673828
c16.0303 -0.604492 45.5439 -5.08496 46.3066 -26.9639c0.703125 -20.1826 -27.8662 -30.7461 -44.3125 -30.127c-89.0146 3.35156 -178.011 -0.762695 -267.044 -0.0224609c-24.6895 -2.92383 -52.1592 5.83008 -52.1592 26.9873
c0 223.698 0.0117188 447.4 0.442383 671.099c-0.234375 1.16016 -0.396484 2.36523 -0.441406 3.63867c-0.21582 6.12402 2.22461 11.2734 6.14258 15.5127c10.6543 12.6982 34.3164 17.6357 53.9814 14.4619c85.709 -0.820312 171.418 -0.321289 257.089 -3.62695
c16.0303 -0.619141 45.5439 -5.07324 46.3066 -26.9629c0.703125 -20.1709 -27.8662 -30.7607 -44.3125 -30.126z" />
    <glyph glyph-name="e" unicode="&#xeb;" horiz-adv-x="384" 
d="M349.221 635.502c-76.0371 2.93164 -152.104 2.86328 -228.187 3.38086c-0.0605469 -35.1475 -0.0751953 -70.291 -0.120117 -105.438c43.3643 0.513672 86.6416 2.04004 130.082 -0.592773c15.875 -0.963867 40.1416 -14.7617 32.873 -34.0107
c-7.82422 -20.7227 -36.5791 -23.001 -55.0391 -21.8828c-35.9404 2.17969 -71.9717 0.460938 -107.98 -0.339844c-0.151367 -151.685 -0.219727 -303.369 -0.219727 -455.054c75.542 0.388672 151.058 2.91211 226.592 0.0673828
c16.0303 -0.604492 45.5439 -5.08496 46.3066 -26.9639c0.703125 -20.1826 -27.8662 -30.7461 -44.3125 -30.127c-89.0146 3.35156 -178.011 -0.762695 -267.044 -0.0224609c-24.6895 -2.92383 -52.1592 5.83008 -52.1592 26.9873
c0 223.698 0.0117188 447.4 0.442383 671.099c-0.234375 1.16016 -0.396484 2.36523 -0.441406 3.63867c-0.21582 6.12402 2.22461 11.2734 6.14258 15.5127c10.6543 12.6982 34.3164 17.6357 53.9814 14.4619c85.709 -0.820312 171.418 -0.321289 257.089 -3.62695
c16.0303 -0.619141 45.5439 -5.07324 46.3066 -26.9629c0.703125 -20.1709 -27.8662 -30.7607 -44.3125 -30.126z" />
    <glyph glyph-name="e" unicode="&#xea;" horiz-adv-x="384" 
d="M349.221 635.502c-76.0371 2.93164 -152.104 2.86328 -228.187 3.38086c-0.0605469 -35.1475 -0.0751953 -70.291 -0.120117 -105.438c43.3643 0.513672 86.6416 2.04004 130.082 -0.592773c15.875 -0.963867 40.1416 -14.7617 32.873 -34.0107
c-7.82422 -20.7227 -36.5791 -23.001 -55.0391 -21.8828c-35.9404 2.17969 -71.9717 0.460938 -107.98 -0.339844c-0.151367 -151.685 -0.219727 -303.369 -0.219727 -455.054c75.542 0.388672 151.058 2.91211 226.592 0.0673828
c16.0303 -0.604492 45.5439 -5.08496 46.3066 -26.9639c0.703125 -20.1826 -27.8662 -30.7461 -44.3125 -30.127c-89.0146 3.35156 -178.011 -0.762695 -267.044 -0.0224609c-24.6895 -2.92383 -52.1592 5.83008 -52.1592 26.9873
c0 223.698 0.0117188 447.4 0.442383 671.099c-0.234375 1.16016 -0.396484 2.36523 -0.441406 3.63867c-0.21582 6.12402 2.22461 11.2734 6.14258 15.5127c10.6543 12.6982 34.3164 17.6357 53.9814 14.4619c85.709 -0.820312 171.418 -0.321289 257.089 -3.62695
c16.0303 -0.619141 45.5439 -5.07324 46.3066 -26.9629c0.703125 -20.1709 -27.8662 -30.7607 -44.3125 -30.126z" />
    <glyph glyph-name="e" unicode="&#xe9;" horiz-adv-x="384" 
d="M349.221 635.502c-76.0371 2.93164 -152.104 2.86328 -228.187 3.38086c-0.0605469 -35.1475 -0.0751953 -70.291 -0.120117 -105.438c43.3643 0.513672 86.6416 2.04004 130.082 -0.592773c15.875 -0.963867 40.1416 -14.7617 32.873 -34.0107
c-7.82422 -20.7227 -36.5791 -23.001 -55.0391 -21.8828c-35.9404 2.17969 -71.9717 0.460938 -107.98 -0.339844c-0.151367 -151.685 -0.219727 -303.369 -0.219727 -455.054c75.542 0.388672 151.058 2.91211 226.592 0.0673828
c16.0303 -0.604492 45.5439 -5.08496 46.3066 -26.9639c0.703125 -20.1826 -27.8662 -30.7461 -44.3125 -30.127c-89.0146 3.35156 -178.011 -0.762695 -267.044 -0.0224609c-24.6895 -2.92383 -52.1592 5.83008 -52.1592 26.9873
c0 223.698 0.0117188 447.4 0.442383 671.099c-0.234375 1.16016 -0.396484 2.36523 -0.441406 3.63867c-0.21582 6.12402 2.22461 11.2734 6.14258 15.5127c10.6543 12.6982 34.3164 17.6357 53.9814 14.4619c85.709 -0.820312 171.418 -0.321289 257.089 -3.62695
c16.0303 -0.619141 45.5439 -5.07324 46.3066 -26.9629c0.703125 -20.1709 -27.8662 -30.7607 -44.3125 -30.126z" />
    <glyph glyph-name="f" unicode="f" horiz-adv-x="380" 
d="M349.217 639.3c-76.1992 -2.86719 -152.381 -0.271484 -228.58 0.0800781c0 -38.2607 0.0146484 -76.5176 0.0185547 -114.778c39.4395 0.374023 78.8672 0.706055 118.265 3.18457c16.0039 1.00488 45.5859 -6.27148 46.3076 -26.9639
c0.744141 -21.3154 -27.8818 -29.0908 -44.3125 -30.126c-40.0586 -2.51953 -80.1475 -2.81836 -120.252 -3.2041c0.0302734 -157.673 0.102539 -315.342 0.412109 -473.015c0.0791016 -39.1787 -90.541 -41.6084 -90.6162 -3.16699
c-0.325195 167.439 -0.393555 334.883 -0.416016 502.326c-0.00390625 0.0830078 -0.0263672 0.158203 -0.0302734 0.241211c-0.0078125 0.196289 0.0302734 0.374023 0.0302734 0.566406c-0.0078125 57.2754 -0.0302734 114.547 -0.0302734 171.818
c-0.151367 4.28027 1.00098 8.04297 2.98438 11.3643c8.31543 14.8818 32.7363 21.3047 53.7236 18.8154c86.8496 0.495117 173.665 -3.32031 260.5 -0.0527344c16.0225 0.600586 45.5742 -5.97363 46.3076 -26.9648c0.733398 -21.0283 -27.8623 -29.5059 -44.3115 -30.125z
" />
    <glyph glyph-name="g" unicode="g" horiz-adv-x="467" 
d="M347.692 -4.18555c-80.3633 -58.0537 -191.444 -39.3115 -254.425 34.6855c-71.0918 83.54 -86.1514 196.152 -81.4893 302.467c2.74316 62.5527 13.4844 125.79 35.2764 184.622c21.1875 57.2031 53.0518 115.578 101.464 154.088
c50.4824 40.1572 126.24 48.0762 185.435 23.8818c60.1318 -24.5762 92.1846 -79.6562 112.068 -138.764c13.7598 -40.8936 -75.3271 -52.4844 -86.8506 -18.2285c-14.5986 43.3945 -37.6182 103.126 -88.7881 112.269c-45.4844 8.12695 -81.0469 -38.498 -102.771 -75.7041
c-53.4404 -91.5234 -69.7842 -199.421 -65.1562 -304.043c3.60449 -81.4697 22.9023 -168.95 84.9229 -226.8c12.834 -11.9688 25.6641 -20.2617 40.667 -24.5078c9.0293 -2.55762 4.19727 -0.902344 2.49316 -0.59668
c0.121094 -0.0185547 9.06738 -0.691406 9.22266 -0.921875c1.68457 0.0302734 3.36621 0.0644531 5.04785 0.181641c0.929688 0.147461 5.14941 0.657227 6.59668 1.04297c2.44434 0.646484 15.5391 5.21387 4.89648 1.02441
c3.01074 1.18652 6.05957 2.35352 9.08594 3.50195c0.84668 0.321289 5.09277 2.45996 5.86719 2.77734c1.8252 1.07715 3.63477 2.18457 5.40625 3.34082c13.0264 8.49316 16.124 11.4736 26.9629 24.2959c41.1582 48.6875 55.417 116.466 59.9053 181.274
c0.101562 3.70215 0.188477 7.4043 0.293945 11.1064c0.158203 5.65527 0.203125 11.3604 0.293945 17.0732c-26.1592 -0.0449219 -52.3184 -0.411133 -78.4893 -0.433594c-16.0303 -0.0117188 -45.5557 5.53809 -46.3037 26.9639
c-0.717773 20.6172 27.8555 30.1152 44.3125 30.127c39.4844 0.0341797 78.9346 0.891602 118.407 0.113281c25.1768 3.61523 54.0566 -5.06641 53.9658 -26.752c0 -0.0986328 -0.00390625 -0.200195 -0.00390625 -0.298828
c0 -0.0078125 0.00390625 -0.015625 0.00390625 -0.0234375c0 -0.0224609 -0.00390625 -0.0449219 -0.00390625 -0.0673828c-0.00390625 -0.347656 -0.0117188 -0.699219 -0.0117188 -1.04688c0.329102 0.6875 0.189453 -1.89648 -0.0488281 -5.09668
c-0.166016 -14.8896 -0.6875 -30.2324 -1.73047 -45.8018c-0.869141 -31.4707 -1.63574 -62.9453 -2.30078 -94.4199c-1.14844 -54.1885 -5.56543 -110.047 -1.23242 -164.171c3.0752 -38.3779 -87.4961 -42.126 -90.6172 -3.16699
c-0.65332 8.17188 -1.06543 16.3926 -1.36719 24.6328c-3.55859 -2.96582 -7.19336 -5.87109 -11.0059 -8.625z" />
    <glyph glyph-name="h" unicode="h" horiz-adv-x="479" 
d="M358.154 -8.68945c-0.268555 160.691 -0.328125 321.389 -0.350586 482.077c-79.0332 -2.13477 -158.093 -1.80566 -237.152 -2.57227c0.0302734 -158.78 0.101562 -317.561 0.411133 -476.341c0.0791016 -39.1787 -90.541 -41.6084 -90.6162 -3.16699
c-0.438477 224.983 -0.446289 449.97 -0.446289 674.953c0 39.1895 90.6162 41.5889 90.6162 3.16602c0 -47.165 0.0185547 -94.334 0.0224609 -141.503c79.0596 0.748047 158.119 0.442383 237.152 2.61816c-0.00390625 45.2422 -0.0185547 90.4844 -0.0185547 135.723
c0 39.1895 90.6162 41.5889 90.6162 3.16602c0 -224.986 0.00390625 -449.97 0.381836 -674.953c0.0683594 -39.1787 -90.5518 -41.6084 -90.6162 -3.16699z" />
    <glyph glyph-name="i" unicode="i" horiz-adv-x="152" 
d="M121.062 -5.52344c0.0751953 -39.1748 -90.5449 -41.6074 -90.6162 -3.16602c-0.438477 224.983 -0.446289 449.97 -0.446289 674.953c0 39.1895 90.6162 41.5889 90.6162 3.16602c0 -224.986 0.0078125 -449.97 0.446289 -674.953z" />
    <glyph glyph-name="i" unicode="&#xef;" horiz-adv-x="152" 
d="M121.062 -5.52344c0.0751953 -39.1748 -90.5449 -41.6074 -90.6162 -3.16602c-0.438477 224.983 -0.446289 449.97 -0.446289 674.953c0 39.1895 90.6162 41.5889 90.6162 3.16602c0 -224.986 0.0078125 -449.97 0.446289 -674.953z" />
    <glyph glyph-name="i" unicode="&#xee;" horiz-adv-x="152" 
d="M121.062 -5.52344c0.0751953 -39.1748 -90.5449 -41.6074 -90.6162 -3.16602c-0.438477 224.983 -0.446289 449.97 -0.446289 674.953c0 39.1895 90.6162 41.5889 90.6162 3.16602c0 -224.986 0.0078125 -449.97 0.446289 -674.953z" />
    <glyph glyph-name="i" unicode="&#xed;" horiz-adv-x="152" 
d="M121.062 -5.52344c0.0751953 -39.1748 -90.5449 -41.6074 -90.6162 -3.16602c-0.438477 224.983 -0.446289 449.97 -0.446289 674.953c0 39.1895 90.6162 41.5889 90.6162 3.16602c0 -224.986 0.0078125 -449.97 0.446289 -674.953z" />
    <glyph glyph-name="j" unicode="j" horiz-adv-x="356" 
d="M330.229 384.304c-0.185547 -72.0508 -0.897461 -144.524 -8.58984 -216.239c-5.3457 -49.8252 -11.5488 -107.222 -45.4414 -146.884c-36.7676 -43.0283 -98.2285 -61.6885 -153.305 -52.5078c-65.8857 10.9795 -110.859 60.2305 -128.775 122.811
c-5.83691 20.3936 12.1992 32.3438 30.4209 36.2197c15.5996 3.32129 50.7578 1.8252 56.4326 -17.9902c8.05078 -28.1279 20.1553 -56.2705 43.6621 -74.9043c-1.66211 1.31836 8.08496 -5.07422 11.1562 -6.74414c0.691406 -0.374023 1.2168 -0.668945 1.65918 -0.925781
c0.505859 -0.151367 1.10645 -0.339844 1.94141 -0.623047c2.02148 -0.683594 4.14453 -1.26562 6.16602 -1.9873c0.532227 -0.0830078 1.46582 -0.245117 2.86035 -0.505859c0.385742 0.155273 1.59863 0.0419922 2.89062 -0.135742
c-3.98926 1.0918 10.209 1.47363 7.26953 0.242188c4.61719 1.15234 10.3105 2.6748 6.65332 1.21289c2.64844 0.986328 5.2666 2.03613 7.85449 3.16211c0.169922 0.234375 6.41895 3.4873 8.06641 4.59473c2.33105 1.56836 4.58691 3.23047 6.79688 4.96484
c0.381836 0.298828 0.646484 0.50293 0.865234 0.665039c14.7461 13.752 20.5381 25.2979 26.8057 44.498c15.5391 47.5996 17.9912 99.7363 20.6016 149.346c7.12891 135.447 2.32715 271.336 1.64746 406.927c-52.5791 -0.699219 -105.144 2.17578 -157.765 1.32227
c-16.0303 -0.256836 -45.5674 5.71973 -46.3076 26.9639c-0.725586 20.7871 27.8555 29.8584 44.3125 30.127c66.1426 1.07324 132.194 -3.8418 198.303 0c4.35254 0.25293 9.71387 -0.117188 15.2188 -1.16699c19.4756 -1.54102 36.7715 -10.5332 36.7793 -27.3193
c0.0449219 -95.0449 2.0625 -190.078 1.82031 -285.122z" />
    <glyph glyph-name="k" unicode="k" horiz-adv-x="386" 
d="M330.906 546.805c-20.9678 -26.7559 -49.6904 -46.6826 -80.5566 -60.3965c-6.80469 -3.02246 -13.7188 -5.68262 -20.708 -8.07422c44.2822 -28.8037 78.4131 -72.0586 97.7227 -125.291c16.8877 -46.5498 22.7285 -97.0098 28.4863 -145.863
c8.32715 -70.6572 10.5898 -141.673 6.46777 -212.704c-2.28906 -39.4697 -92.8037 -40.8936 -90.6162 -3.16602c3.8457 66.2969 2.20605 132.624 -4.88574 198.653c-4.84766 45.1553 -10.2959 96.1289 -22.9033 134.956
c-10.4463 32.1816 -25.8721 63.4756 -48.8574 88.1465c-21.8711 23.4727 -46.0586 37.0059 -74.25 43.5869c-0.135742 -151.969 -0.192383 -303.934 -0.192383 -455.898c0 -39.1895 -90.6162 -41.5889 -90.6162 -3.16602c0 224.986 0.0078125 449.97 0.446289 674.953
c0.0751953 39.2051 90.6914 41.5703 90.6162 3.16602c-0.101562 -52.6475 -0.120117 -105.299 -0.180664 -157.946c7.85449 0.268555 15.7051 0.661133 23.5674 1.27734c1.04688 0.0830078 1.84375 0.155273 2.5166 0.21582
c1.60938 0.211914 3.22266 0.412109 4.82812 0.672852c5.5459 0.895508 11.0732 1.83984 16.5703 3.01074c5.05469 1.07715 10.0908 2.30469 15.0703 3.69922c-0.849609 -0.105469 9.67578 3.4082 11.9502 4.31152c14.1943 5.64453 17.2588 7.23926 29.3789 15.8232
c9.90234 7.01172 17.5303 14.4619 25.4492 24.2734c21.5879 26.7373 28.5127 58.0801 32.8271 91.4326c2.73145 21.1191 25.1689 29.457 44.3125 30.126c13.915 0.483398 48.9795 -6.2832 46.3047 -26.9639c-5.70117 -44.0557 -14.8398 -83.2266 -42.748 -118.835z
M147.764 519.326c1.26562 0.125 1.32617 0.158203 0 0z" />
    <glyph glyph-name="l" unicode="l" horiz-adv-x="330" 
d="M78.707 -36.0459c-23.5791 -1.59082 -48.2217 7.31543 -48.2598 27.3545c-0.442383 224.983 -0.446289 449.97 -0.446289 674.953c0 39.1895 90.6162 41.5889 90.6162 3.16602c0 -216.09 0.0263672 -432.18 0.415039 -648.27
c59.875 0.453125 119.742 0.438477 179.583 3.01855c16.0186 0.6875 45.5781 -6.03711 46.3076 -26.9639c0.736328 -21.0928 -27.8672 -29.416 -44.3135 -30.126c-72.3418 -3.11719 -144.726 -2.4375 -217.109 -3.38184
c-2.06641 -0.0263672 -4.36719 0.0527344 -6.79297 0.249023z" />
    <glyph glyph-name="m" unicode="m" horiz-adv-x="502" 
d="M290.225 488.639c-17.9385 -15.0781 -38.7656 -23.1748 -62.915 -17.3525c-16.6465 4.0127 -24.875 13.7451 -36.0576 25.0146c-23.541 23.7227 -47.0781 47.4492 -70.6191 71.1719c0.0117188 -190.995 0.0537109 -381.994 0.419922 -572.993
c0.0751953 -39.1787 -90.5449 -41.6084 -90.6172 -3.16699c-0.430664 224.983 -0.43457 449.97 -0.43457 674.953c0 35.5322 74.4961 40.8174 88.3955 12.8525c43.3076 -43.6475 86.6191 -87.292 129.927 -130.939c18.4902 17.0996 36.7461 34.4521 54.9219 51.8877
c27.2666 26.1553 54.3818 52.4805 81.334 78.9648c17.0273 26.2275 85.9395 24.1123 86.793 -8.99512c0.245117 -1.52637 0.25293 -3.07129 0.0449219 -4.62402c0 -223.646 0.0078125 -447.287 0.43457 -670.933c0.0751953 -39.1787 -90.5449 -41.6084 -90.6162 -3.16699
c-0.370117 193.674 -0.412109 387.352 -0.419922 581.025c-29.5713 -28.5166 -59.1572 -57.2754 -90.5908 -83.6992z" />
    <glyph glyph-name="n" unicode="n" horiz-adv-x="485" 
d="M121.062 -5.52344c0.0751953 -39.1748 -90.541 -41.6084 -90.6162 -3.16699c-0.438477 224.983 -0.446289 449.97 -0.446289 674.953c0 35.7441 75.3418 40.8633 88.6025 12.3428c4.43945 -5.04395 7.83594 -13.3477 10.6396 -18.7578
c6.47949 -12.5088 12.71 -25.1504 18.9551 -37.7764c72.5654 -146.735 143.381 -294.329 215.568 -441.246c-0.162109 161.813 -0.226562 323.627 -0.226562 485.438c0 39.1895 90.6162 41.5889 90.6162 3.16602c0 -224.159 0.0078125 -448.318 0.442383 -672.478
c2.43262 -9.34277 -2.15039 -16.9521 -10.4541 -22.3584c-22.415 -17.3906 -73.5586 -14.0508 -79.5312 11.6855c-31.543 62.4365 -62.6211 125.106 -93.5068 187.871c-50.4941 102.623 -100.425 205.515 -150.458 308.36
c0.0263672 -162.679 0.0976562 -325.357 0.415039 -488.033z" />
    <glyph glyph-name="o" unicode="o" 
d="M452.596 129.874c-24.7051 -59.8184 -65.6592 -112.774 -125.844 -139.761c-46.4326 -20.8242 -104.135 -25.7354 -152.407 -8.30371c-33.8926 12.2412 -61.0527 35.2646 -82.4443 63.7471c-77.5186 103.213 -89.9824 251.6 -73.5703 375.712
c15.0215 113.606 60.3691 251.173 183.224 284.798c1.68164 0.540039 3.33301 1.01562 4.88965 1.36328c1.37891 0.335938 2.86328 0.608398 4.39355 0.84668c62.2129 12.5166 125.42 -4.75684 171.104 -49.3604c43.4404 -42.416 68.8672 -101.486 84.3652 -159.23
c31.7695 -118.4 33.6738 -255.083 -13.7109 -369.812zM314.878 63.5244c33.9189 34.6562 52.4961 77.0146 65.8398 125.805c28.0977 102.688 23.2539 223.12 -10.707 323.431c-15.4443 45.6309 -35.0371 85.9766 -67.3428 116.563
c-3.29785 3.12109 -6.73926 6.09082 -10.2754 8.94336c-0.0683594 -0.147461 -7.05762 4.82812 -8.31543 5.60254c-3.75586 2.3125 -7.73828 4.16406 -11.543 6.36621c-0.101562 0.0302734 -0.162109 0.0449219 -0.271484 0.0751953
c-2.48242 0.717773 -4.89648 1.8252 -7.36719 2.61133c-0.464844 0.147461 -0.9375 0.268555 -1.40625 0.404297c-0.25293 0.0869141 -0.978516 0.302734 -1.87402 0.541016c-1.41699 0.385742 -2.83398 0.763672 -4.24707 1.18262
c1.14453 -0.339844 2.05078 -0.604492 2.84375 -0.834961c-0.804688 0.188477 -1.60156 0.34668 -2.20215 0.411133c-3.95215 0.422852 -18.2939 0.105469 -3.8584 0.811523c-4.25781 -0.208008 -8.60645 -0.339844 -12.8828 -0.418945
c-0.0605469 -0.0185547 -0.0947266 -0.0302734 -0.15918 -0.0488281c-2.78809 -0.77832 -5.81445 -1.12207 -8.64844 -1.75684c-1.04297 -0.256836 -1.80566 -0.430664 -2.45215 -0.570312c-0.135742 -0.0683594 -0.222656 -0.117188 -0.380859 -0.192383
c-2.47852 -1.18262 -5.29297 -2.14941 -7.8623 -3.13184c-0.914062 -0.347656 -2.76953 -1.26953 -4.02734 -1.89648c-1.50391 -0.873047 -3.02637 -1.71973 -4.5 -2.64551c-4.92676 -3.09766 -9.51367 -6.59961 -14.1377 -10.1211
c-0.479492 -0.366211 -0.849609 -0.641602 -1.16309 -0.87207c-0.242188 -0.238281 -0.537109 -0.521484 -0.915039 -0.880859c-2.19531 -2.07812 -4.36816 -4.17871 -6.47656 -6.34766c-20.2881 -20.8701 -31.0557 -38.876 -42.8965 -64.2529
c-26.7373 -57.3096 -39.1895 -120.645 -43.1113 -183.466c-6.52051 -104.455 7.16406 -237.254 75.9961 -315.883c17.9189 -20.4658 39.3145 -34.9697 62.5801 -34.3271c13.8125 0.381836 32.1436 5.84082 46.7949 14.8818c5.91309 3.64941 11.5312 7.82031 16.8809 12.2598
c-1.23926 -0.910156 6.5166 6.15137 8.08789 7.75684z" />
    <glyph glyph-name="o" unicode="&#xf6;" 
d="M452.596 129.874c-24.7051 -59.8184 -65.6592 -112.774 -125.844 -139.761c-46.4326 -20.8242 -104.135 -25.7354 -152.407 -8.30371c-33.8926 12.2412 -61.0527 35.2646 -82.4443 63.7471c-77.5186 103.213 -89.9824 251.6 -73.5703 375.712
c15.0215 113.606 60.3691 251.173 183.224 284.798c1.68164 0.540039 3.33301 1.01562 4.88965 1.36328c1.37891 0.335938 2.86328 0.608398 4.39355 0.84668c62.2129 12.5166 125.42 -4.75684 171.104 -49.3604c43.4404 -42.416 68.8672 -101.486 84.3652 -159.23
c31.7695 -118.4 33.6738 -255.083 -13.7109 -369.812zM314.878 63.5244c33.9189 34.6562 52.4961 77.0146 65.8398 125.805c28.0977 102.688 23.2539 223.12 -10.707 323.431c-15.4443 45.6309 -35.0371 85.9766 -67.3428 116.563
c-3.29785 3.12109 -6.73926 6.09082 -10.2754 8.94336c-0.0683594 -0.147461 -7.05762 4.82812 -8.31543 5.60254c-3.75586 2.3125 -7.73828 4.16406 -11.543 6.36621c-0.101562 0.0302734 -0.162109 0.0449219 -0.271484 0.0751953
c-2.48242 0.717773 -4.89648 1.8252 -7.36719 2.61133c-0.464844 0.147461 -0.9375 0.268555 -1.40625 0.404297c-0.25293 0.0869141 -0.978516 0.302734 -1.87402 0.541016c-1.41699 0.385742 -2.83398 0.763672 -4.24707 1.18262
c1.14453 -0.339844 2.05078 -0.604492 2.84375 -0.834961c-0.804688 0.188477 -1.60156 0.34668 -2.20215 0.411133c-3.95215 0.422852 -18.2939 0.105469 -3.8584 0.811523c-4.25781 -0.208008 -8.60645 -0.339844 -12.8828 -0.418945
c-0.0605469 -0.0185547 -0.0947266 -0.0302734 -0.15918 -0.0488281c-2.78809 -0.77832 -5.81445 -1.12207 -8.64844 -1.75684c-1.04297 -0.256836 -1.80566 -0.430664 -2.45215 -0.570312c-0.135742 -0.0683594 -0.222656 -0.117188 -0.380859 -0.192383
c-2.47852 -1.18262 -5.29297 -2.14941 -7.8623 -3.13184c-0.914062 -0.347656 -2.76953 -1.26953 -4.02734 -1.89648c-1.50391 -0.873047 -3.02637 -1.71973 -4.5 -2.64551c-4.92676 -3.09766 -9.51367 -6.59961 -14.1377 -10.1211
c-0.479492 -0.366211 -0.849609 -0.641602 -1.16309 -0.87207c-0.242188 -0.238281 -0.537109 -0.521484 -0.915039 -0.880859c-2.19531 -2.07812 -4.36816 -4.17871 -6.47656 -6.34766c-20.2881 -20.8701 -31.0557 -38.876 -42.8965 -64.2529
c-26.7373 -57.3096 -39.1895 -120.645 -43.1113 -183.466c-6.52051 -104.455 7.16406 -237.254 75.9961 -315.883c17.9189 -20.4658 39.3145 -34.9697 62.5801 -34.3271c13.8125 0.381836 32.1436 5.84082 46.7949 14.8818c5.91309 3.64941 11.5312 7.82031 16.8809 12.2598
c-1.23926 -0.910156 6.5166 6.15137 8.08789 7.75684z" />
    <glyph glyph-name="o" unicode="&#xf5;" 
d="M452.596 129.874c-24.7051 -59.8184 -65.6592 -112.774 -125.844 -139.761c-46.4326 -20.8242 -104.135 -25.7354 -152.407 -8.30371c-33.8926 12.2412 -61.0527 35.2646 -82.4443 63.7471c-77.5186 103.213 -89.9824 251.6 -73.5703 375.712
c15.0215 113.606 60.3691 251.173 183.224 284.798c1.68164 0.540039 3.33301 1.01562 4.88965 1.36328c1.37891 0.335938 2.86328 0.608398 4.39355 0.84668c62.2129 12.5166 125.42 -4.75684 171.104 -49.3604c43.4404 -42.416 68.8672 -101.486 84.3652 -159.23
c31.7695 -118.4 33.6738 -255.083 -13.7109 -369.812zM314.878 63.5244c33.9189 34.6562 52.4961 77.0146 65.8398 125.805c28.0977 102.688 23.2539 223.12 -10.707 323.431c-15.4443 45.6309 -35.0371 85.9766 -67.3428 116.563
c-3.29785 3.12109 -6.73926 6.09082 -10.2754 8.94336c-0.0683594 -0.147461 -7.05762 4.82812 -8.31543 5.60254c-3.75586 2.3125 -7.73828 4.16406 -11.543 6.36621c-0.101562 0.0302734 -0.162109 0.0449219 -0.271484 0.0751953
c-2.48242 0.717773 -4.89648 1.8252 -7.36719 2.61133c-0.464844 0.147461 -0.9375 0.268555 -1.40625 0.404297c-0.25293 0.0869141 -0.978516 0.302734 -1.87402 0.541016c-1.41699 0.385742 -2.83398 0.763672 -4.24707 1.18262
c1.14453 -0.339844 2.05078 -0.604492 2.84375 -0.834961c-0.804688 0.188477 -1.60156 0.34668 -2.20215 0.411133c-3.95215 0.422852 -18.2939 0.105469 -3.8584 0.811523c-4.25781 -0.208008 -8.60645 -0.339844 -12.8828 -0.418945
c-0.0605469 -0.0185547 -0.0947266 -0.0302734 -0.15918 -0.0488281c-2.78809 -0.77832 -5.81445 -1.12207 -8.64844 -1.75684c-1.04297 -0.256836 -1.80566 -0.430664 -2.45215 -0.570312c-0.135742 -0.0683594 -0.222656 -0.117188 -0.380859 -0.192383
c-2.47852 -1.18262 -5.29297 -2.14941 -7.8623 -3.13184c-0.914062 -0.347656 -2.76953 -1.26953 -4.02734 -1.89648c-1.50391 -0.873047 -3.02637 -1.71973 -4.5 -2.64551c-4.92676 -3.09766 -9.51367 -6.59961 -14.1377 -10.1211
c-0.479492 -0.366211 -0.849609 -0.641602 -1.16309 -0.87207c-0.242188 -0.238281 -0.537109 -0.521484 -0.915039 -0.880859c-2.19531 -2.07812 -4.36816 -4.17871 -6.47656 -6.34766c-20.2881 -20.8701 -31.0557 -38.876 -42.8965 -64.2529
c-26.7373 -57.3096 -39.1895 -120.645 -43.1113 -183.466c-6.52051 -104.455 7.16406 -237.254 75.9961 -315.883c17.9189 -20.4658 39.3145 -34.9697 62.5801 -34.3271c13.8125 0.381836 32.1436 5.84082 46.7949 14.8818c5.91309 3.64941 11.5312 7.82031 16.8809 12.2598
c-1.23926 -0.910156 6.5166 6.15137 8.08789 7.75684z" />
    <glyph glyph-name="o" unicode="&#xf4;" 
d="M452.596 129.874c-24.7051 -59.8184 -65.6592 -112.774 -125.844 -139.761c-46.4326 -20.8242 -104.135 -25.7354 -152.407 -8.30371c-33.8926 12.2412 -61.0527 35.2646 -82.4443 63.7471c-77.5186 103.213 -89.9824 251.6 -73.5703 375.712
c15.0215 113.606 60.3691 251.173 183.224 284.798c1.68164 0.540039 3.33301 1.01562 4.88965 1.36328c1.37891 0.335938 2.86328 0.608398 4.39355 0.84668c62.2129 12.5166 125.42 -4.75684 171.104 -49.3604c43.4404 -42.416 68.8672 -101.486 84.3652 -159.23
c31.7695 -118.4 33.6738 -255.083 -13.7109 -369.812zM314.878 63.5244c33.9189 34.6562 52.4961 77.0146 65.8398 125.805c28.0977 102.688 23.2539 223.12 -10.707 323.431c-15.4443 45.6309 -35.0371 85.9766 -67.3428 116.563
c-3.29785 3.12109 -6.73926 6.09082 -10.2754 8.94336c-0.0683594 -0.147461 -7.05762 4.82812 -8.31543 5.60254c-3.75586 2.3125 -7.73828 4.16406 -11.543 6.36621c-0.101562 0.0302734 -0.162109 0.0449219 -0.271484 0.0751953
c-2.48242 0.717773 -4.89648 1.8252 -7.36719 2.61133c-0.464844 0.147461 -0.9375 0.268555 -1.40625 0.404297c-0.25293 0.0869141 -0.978516 0.302734 -1.87402 0.541016c-1.41699 0.385742 -2.83398 0.763672 -4.24707 1.18262
c1.14453 -0.339844 2.05078 -0.604492 2.84375 -0.834961c-0.804688 0.188477 -1.60156 0.34668 -2.20215 0.411133c-3.95215 0.422852 -18.2939 0.105469 -3.8584 0.811523c-4.25781 -0.208008 -8.60645 -0.339844 -12.8828 -0.418945
c-0.0605469 -0.0185547 -0.0947266 -0.0302734 -0.15918 -0.0488281c-2.78809 -0.77832 -5.81445 -1.12207 -8.64844 -1.75684c-1.04297 -0.256836 -1.80566 -0.430664 -2.45215 -0.570312c-0.135742 -0.0683594 -0.222656 -0.117188 -0.380859 -0.192383
c-2.47852 -1.18262 -5.29297 -2.14941 -7.8623 -3.13184c-0.914062 -0.347656 -2.76953 -1.26953 -4.02734 -1.89648c-1.50391 -0.873047 -3.02637 -1.71973 -4.5 -2.64551c-4.92676 -3.09766 -9.51367 -6.59961 -14.1377 -10.1211
c-0.479492 -0.366211 -0.849609 -0.641602 -1.16309 -0.87207c-0.242188 -0.238281 -0.537109 -0.521484 -0.915039 -0.880859c-2.19531 -2.07812 -4.36816 -4.17871 -6.47656 -6.34766c-20.2881 -20.8701 -31.0557 -38.876 -42.8965 -64.2529
c-26.7373 -57.3096 -39.1895 -120.645 -43.1113 -183.466c-6.52051 -104.455 7.16406 -237.254 75.9961 -315.883c17.9189 -20.4658 39.3145 -34.9697 62.5801 -34.3271c13.8125 0.381836 32.1436 5.84082 46.7949 14.8818c5.91309 3.64941 11.5312 7.82031 16.8809 12.2598
c-1.23926 -0.910156 6.5166 6.15137 8.08789 7.75684z" />
    <glyph glyph-name="o" unicode="&#xf3;" 
d="M452.596 129.874c-24.7051 -59.8184 -65.6592 -112.774 -125.844 -139.761c-46.4326 -20.8242 -104.135 -25.7354 -152.407 -8.30371c-33.8926 12.2412 -61.0527 35.2646 -82.4443 63.7471c-77.5186 103.213 -89.9824 251.6 -73.5703 375.712
c15.0215 113.606 60.3691 251.173 183.224 284.798c1.68164 0.540039 3.33301 1.01562 4.88965 1.36328c1.37891 0.335938 2.86328 0.608398 4.39355 0.84668c62.2129 12.5166 125.42 -4.75684 171.104 -49.3604c43.4404 -42.416 68.8672 -101.486 84.3652 -159.23
c31.7695 -118.4 33.6738 -255.083 -13.7109 -369.812zM314.878 63.5244c33.9189 34.6562 52.4961 77.0146 65.8398 125.805c28.0977 102.688 23.2539 223.12 -10.707 323.431c-15.4443 45.6309 -35.0371 85.9766 -67.3428 116.563
c-3.29785 3.12109 -6.73926 6.09082 -10.2754 8.94336c-0.0683594 -0.147461 -7.05762 4.82812 -8.31543 5.60254c-3.75586 2.3125 -7.73828 4.16406 -11.543 6.36621c-0.101562 0.0302734 -0.162109 0.0449219 -0.271484 0.0751953
c-2.48242 0.717773 -4.89648 1.8252 -7.36719 2.61133c-0.464844 0.147461 -0.9375 0.268555 -1.40625 0.404297c-0.25293 0.0869141 -0.978516 0.302734 -1.87402 0.541016c-1.41699 0.385742 -2.83398 0.763672 -4.24707 1.18262
c1.14453 -0.339844 2.05078 -0.604492 2.84375 -0.834961c-0.804688 0.188477 -1.60156 0.34668 -2.20215 0.411133c-3.95215 0.422852 -18.2939 0.105469 -3.8584 0.811523c-4.25781 -0.208008 -8.60645 -0.339844 -12.8828 -0.418945
c-0.0605469 -0.0185547 -0.0947266 -0.0302734 -0.15918 -0.0488281c-2.78809 -0.77832 -5.81445 -1.12207 -8.64844 -1.75684c-1.04297 -0.256836 -1.80566 -0.430664 -2.45215 -0.570312c-0.135742 -0.0683594 -0.222656 -0.117188 -0.380859 -0.192383
c-2.47852 -1.18262 -5.29297 -2.14941 -7.8623 -3.13184c-0.914062 -0.347656 -2.76953 -1.26953 -4.02734 -1.89648c-1.50391 -0.873047 -3.02637 -1.71973 -4.5 -2.64551c-4.92676 -3.09766 -9.51367 -6.59961 -14.1377 -10.1211
c-0.479492 -0.366211 -0.849609 -0.641602 -1.16309 -0.87207c-0.242188 -0.238281 -0.537109 -0.521484 -0.915039 -0.880859c-2.19531 -2.07812 -4.36816 -4.17871 -6.47656 -6.34766c-20.2881 -20.8701 -31.0557 -38.876 -42.8965 -64.2529
c-26.7373 -57.3096 -39.1895 -120.645 -43.1113 -183.466c-6.52051 -104.455 7.16406 -237.254 75.9961 -315.883c17.9189 -20.4658 39.3145 -34.9697 62.5801 -34.3271c13.8125 0.381836 32.1436 5.84082 46.7949 14.8818c5.91309 3.64941 11.5312 7.82031 16.8809 12.2598
c-1.23926 -0.910156 6.5166 6.15137 8.08789 7.75684z" />
    <glyph glyph-name="p" unicode="p" horiz-adv-x="408" 
d="M120.62 -2.38379c0 -39.1895 -90.6152 -41.5908 -90.6191 -3.16406c0 224.986 0.0078125 449.97 0.446289 674.953c0.0449219 22.2334 29.2119 32.6045 54.4414 30.4209c46.3828 1.625 92.3955 3.41211 138.869 0.642578
c51.0527 -3.04102 109.703 -10.6006 150.752 -43.8252c36.6777 -29.6846 35.6045 -80.4727 3.90625 -113.682c-38.2305 -40.0547 -99.7148 -55.1514 -152.607 -62.7793c-32.8955 -4.74512 -70.0938 -9.82324 -104.973 -7.73438
c-0.155273 -158.277 -0.21582 -316.555 -0.21582 -474.832zM198.615 644.696c-1.16406 0.0449219 -1.59766 0.0605469 0 0zM179.775 645.185c-19.6152 0.279297 -39.1758 -0.304688 -58.7275 -1.06445c-0.0683594 -37.7275 -0.0830078 -75.4551 -0.12793 -113.183
c0.499023 -0.0644531 0.998047 -0.125 1.49707 -0.197266c0.646484 -0.0908203 1.30371 -0.121094 1.96094 -0.155273c8.48535 0.21875 17.0537 -0.321289 25.5508 -0.0761719c11.3379 0.329102 22.668 1.02832 33.9639 2.05566
c3.05273 0.279297 6.09766 0.619141 9.15039 0.90625c0.162109 0.0146484 0.263672 0.0224609 0.415039 0.0371094c0.211914 0.0302734 0.393555 0.0605469 0.672852 0.0986328c6.3584 0.891602 12.7051 1.80176 19.0332 2.89746
c11.4697 1.9873 22.876 4.38672 34.1348 7.36426c2.44434 0.646484 4.88086 1.33789 7.31055 2.04395c0.529297 0.188477 1.16016 0.415039 1.97656 0.706055c4.62402 1.65137 9.24805 3.28711 13.7891 5.16113c14.957 6.17383 25.7021 11.5576 35.6426 25.3398
c-0.970703 -0.974609 3.51758 7.22754 4.36426 9.30176c0.505859 1.23926 0.898438 2.65234 1.24609 4.03906c0.113281 0.657227 0.385742 2.11523 0.423828 2.56445c0.34375 4.09961 0.196289 8.05176 -0.242188 12.1279
c-0.0341797 0.291016 -0.173828 0.959961 -0.329102 1.64746c-0.513672 1.20898 -1.49609 3.8877 -1.52637 3.94434c-0.963867 1.71484 -1.8252 3.4834 -2.7998 5.19824c-0.139648 0.139648 -0.25293 0.25293 -0.415039 0.422852
c-1.61719 1.69238 -3.26855 3.30176 -4.96094 4.87695c-0.105469 -0.113281 -4.72949 3.43848 -6.38379 4.40234c-2.01367 1.16699 -4.0957 2.17578 -6.14746 3.26758c-4.70703 1.83203 -9.42578 3.54395 -14.2617 5.01758
c-1.93457 0.589844 -11.5537 3.00391 -10.5488 2.89453c-8.9541 1.8623 -17.9951 3.31348 -27.0625 4.48047c-11.2588 1.44727 -22.5557 2.37305 -33.875 3.15527c-0.993164 0.0683594 -2.94238 0.155273 -4.33691 0.21582
c-1.47754 0.0566406 -2.95117 0.117188 -4.42871 0.166016c-4.9873 0.162109 -9.9707 0.271484 -14.958 0.342773z" />
    <glyph glyph-name="q" unicode="q" 
d="M452.6 129.874c-23.541 -56.999 -61.8828 -107.714 -117.515 -135.721c19.6309 -37.8525 40.4668 -75.0742 62.5645 -111.593c11.2812 -18.6484 -16.8838 -33.3379 -30.4209 -36.2207c-19.6387 -4.17871 -45.2764 -0.450195 -56.4326 17.9902
c-21.2549 35.125 -41.3311 70.8994 -60.3008 107.256c-26.0195 -1.54883 -52.2432 1.59082 -76.1504 10.2236c-33.8926 12.2412 -61.0527 35.2646 -82.4443 63.7471c-77.5176 103.213 -89.9814 251.6 -73.5693 375.712c15.0215 113.606 60.3691 251.173 183.224 284.798
c1.68164 0.540039 3.33301 1.01562 4.88965 1.36328c1.37891 0.335938 2.86328 0.608398 4.39355 0.84668c62.2168 12.5166 125.42 -4.75684 171.104 -49.3604c43.4404 -42.416 68.8701 -101.486 84.3643 -159.23c31.7734 -118.4 33.6777 -255.083 -13.707 -369.812z
M314.88 63.5254c33.916 34.6562 52.4941 77.0176 65.8311 125.808c28.0977 102.688 23.2539 223.12 -10.707 323.431c-15.4443 45.6309 -35.0371 85.9766 -67.3428 116.563c-3.29785 3.12109 -6.73926 6.09082 -10.2754 8.94336
c-0.0644531 -0.151367 -7.05762 4.82812 -8.31543 5.60254c-3.75586 2.3125 -7.74121 4.16406 -11.542 6.36621c-0.101562 0.0302734 -0.162109 0.0449219 -0.271484 0.0751953c-2.48242 0.717773 -4.89648 1.8252 -7.36719 2.61133
c-0.464844 0.147461 -0.9375 0.268555 -1.40625 0.404297c-0.25293 0.0869141 -0.978516 0.302734 -1.87402 0.541016c-1.41699 0.385742 -2.83398 0.763672 -4.24707 1.18262c1.14453 -0.339844 2.05078 -0.604492 2.84375 -0.834961
c-0.804688 0.188477 -1.60156 0.34668 -2.20215 0.411133c-3.95215 0.422852 -18.2939 0.105469 -3.8584 0.811523c-4.25391 -0.208008 -8.60645 -0.339844 -12.8799 -0.418945c-0.0605469 -0.0185547 -0.0947266 -0.0302734 -0.15918 -0.0488281
c-2.78809 -0.77832 -5.81445 -1.12207 -8.64844 -1.75684c-1.03906 -0.256836 -1.80176 -0.430664 -2.45117 -0.570312c-0.135742 -0.0683594 -0.222656 -0.117188 -0.380859 -0.192383c-2.47852 -1.18262 -5.29297 -2.14941 -7.8623 -3.13184
c-0.914062 -0.351562 -2.76953 -1.27344 -4.02734 -1.90039c-1.50781 -0.869141 -3.02637 -1.71582 -4.5 -2.6416c-4.92676 -3.09766 -9.51367 -6.59961 -14.1377 -10.1211c-0.483398 -0.366211 -0.849609 -0.641602 -1.16309 -0.87207
c-0.242188 -0.238281 -0.533203 -0.521484 -0.915039 -0.880859c-2.19531 -2.07812 -4.36816 -4.17871 -6.47656 -6.34766c-20.2881 -20.8701 -31.0557 -38.876 -42.8965 -64.2529c-26.7373 -57.3096 -39.1895 -120.645 -43.1113 -183.466
c-6.52051 -104.455 7.16406 -237.254 75.9961 -315.883c11.7305 -13.4004 24.957 -24.2061 39.2158 -29.9189c-3.9668 8.30762 -7.87695 16.6455 -11.7305 25.0098c-17.6436 38.3203 71.5068 51.5508 86.8496 18.2285c3.37012 -7.31445 6.80078 -14.5986 10.2578 -21.8711
c0.55957 0.449219 1.11523 0.90625 1.66699 1.36328c-1.23926 -0.910156 6.5166 6.15137 8.08789 7.75684z" />
    <glyph glyph-name="r" unicode="r" horiz-adv-x="414" 
d="M374.509 656.645c36.6738 -29.6875 35.6016 -80.4736 3.90039 -113.687c-33.0049 -34.5801 -83.3398 -50.542 -130.521 -59.1709c48.5742 -28.6494 85.9619 -74.0352 106.533 -130.744c16.8877 -46.5498 22.7285 -97.0098 28.4863 -145.863
c8.32715 -70.6572 10.5898 -141.673 6.46777 -212.704c-2.28906 -39.4697 -92.8037 -40.8936 -90.6162 -3.16602c3.8457 66.2969 2.20215 132.624 -4.88574 198.653c-4.84766 45.1553 -10.2959 96.1289 -22.9033 134.956
c-10.4463 32.1816 -25.8721 63.4756 -48.8574 88.1465c-28.5283 30.6133 -60.9629 44.3691 -101.131 47.7656c-0.0527344 0.0078125 -0.109375 0.0195312 -0.162109 0.0234375c-0.147461 -154.413 -0.204102 -308.822 -0.204102 -463.235
c0 -39.1895 -90.6162 -41.5889 -90.6162 -3.16602c0 224.986 0.0078125 449.97 0.446289 674.953c0.0449219 22.2334 29.2119 32.6045 54.4414 30.4209c46.3828 1.625 92.3955 3.41211 138.869 0.642578c51.0527 -3.04102 109.703 -10.6006 150.752 -43.8252z
M198.607 644.696c-1.16016 0.0449219 -1.59082 0.0605469 0 0zM312.036 593.018c0.34375 4.09961 0.200195 8.05762 -0.242188 12.123c-0.0302734 0.291016 -0.173828 0.959961 -0.329102 1.64746c-0.509766 1.20898 -1.49219 3.8877 -1.52246 3.94434
c-0.963867 1.71484 -1.8252 3.4834 -2.7998 5.19824c-0.139648 0.143555 -0.256836 0.256836 -0.415039 0.426758c-1.61719 1.69238 -3.26855 3.30176 -4.96094 4.87695c-0.105469 -0.113281 -4.72949 3.43848 -6.38477 4.40234
c-2.00977 1.16699 -4.0957 2.17578 -6.14746 3.26758c-4.7041 1.83203 -9.42676 3.54395 -14.2588 5.01758c-1.93457 0.589844 -11.5537 3.00391 -10.5488 2.89453c-8.9541 1.8623 -17.9951 3.31348 -27.0625 4.48047c-11.2588 1.44727 -22.5557 2.37305 -33.875 3.15527
c-0.993164 0.0683594 -2.94238 0.155273 -4.33691 0.21582c-1.47754 0.0566406 -2.95117 0.117188 -4.42871 0.166016c-4.9834 0.162109 -9.9668 0.271484 -14.9541 0.342773c-19.6123 0.283203 -39.1748 -0.302734 -58.7373 -1.0625
c-0.0644531 -37.7275 -0.0830078 -75.4551 -0.12793 -113.183c0.499023 -0.0644531 0.994141 -0.125 1.49707 -0.197266c0.646484 -0.0908203 1.30371 -0.121094 1.96094 -0.155273c8.48535 0.21875 17.0537 -0.321289 25.5508 -0.0761719
c11.3379 0.329102 22.668 1.02832 33.9639 2.05566c3.05273 0.279297 6.09766 0.619141 9.15039 0.90625c0.162109 0.0146484 0.263672 0.0224609 0.415039 0.0371094c0.211914 0.0302734 0.389648 0.0605469 0.672852 0.0986328
c6.3584 0.891602 12.7051 1.80176 19.0332 2.89746c11.4736 1.9873 22.876 4.38672 34.1348 7.36426c2.44434 0.646484 4.88086 1.33789 7.31055 2.04395c0.529297 0.188477 1.16016 0.415039 1.97656 0.706055c4.62402 1.65137 9.24805 3.28711 13.7891 5.16113
c14.957 6.17285 25.7021 11.5566 35.6426 25.3389c-0.970703 -0.974609 3.51758 7.22754 4.36426 9.30176c0.505859 1.23926 0.898438 2.65234 1.24609 4.03906c0.113281 0.661133 0.385742 2.11523 0.423828 2.56445z" />
    <glyph glyph-name="s" unicode="s" horiz-adv-x="391" 
d="M339.294 509.259c-13.9717 -0.487305 -48.9102 6.26855 -46.3037 26.9609c3.37402 26.8359 -0.192383 53.5127 -19.9443 73.4307c-6.31348 6.37012 -17.7871 13.7715 -22.9551 15.959c-5.72363 2.42578 -12.3008 4.23145 -13.3887 4.4541
c-3.13965 0.642578 -17.0615 1.88965 -14.1641 1.82129c-54.8838 1.26953 -110.429 -34.7695 -122.013 -93.7031c-9.66016 -49.1377 6.53223 -109.235 35.8691 -149.468c22.7969 -31.2676 57.2266 -60.2871 87.916 -86.5146
c62.1338 -53.1006 143.721 -113.5 153.963 -201.15c5.46289 -46.75 -14.3525 -92.665 -51.5059 -121.159c-49.334 -37.8369 -119.522 -37.3154 -176.359 -19.8154c-90.2539 27.791 -124.09 124.66 -106.673 211.431c4.0498 20.1787 40.0625 23.9873 55.0391 21.8828
c18.376 -2.58398 37.0059 -13.4229 32.873 -34.0098c-0.0341797 -0.173828 -0.0605469 -0.291016 -0.0908203 -0.442383c-0.0263672 -0.325195 -0.0644531 -0.72168 -0.128906 -1.2959c-0.196289 -1.81348 -0.43457 -3.61914 -0.612305 -5.43652
c-0.392578 -4.03906 -0.634766 -8.09277 -0.774414 -12.1465c-0.34375 -10.0156 0 -20.0576 0.974609 -30.0283c2.11523 -21.6104 7.4082 -42.3779 17.8701 -61.5361c11.9502 -21.8867 27.2139 -32.4346 48.5635 -38.4609
c12.7246 -3.58887 21.6221 -4.69238 32.4121 -4.27344c5.70508 0.21875 15.751 2.45898 20.9082 5.22852c32.0156 17.1943 42.9043 59.8145 35.4805 95.918c-7.21582 35.0908 -33.2051 66.1543 -58.6689 91.8525c-60.9629 61.5254 -140.809 108.577 -186.202 184.214
c-28.3584 47.248 -40.335 110.549 -29.3262 164.454c12.4521 60.9697 63.0664 105.709 120.009 125.922c58.2646 20.6846 125.771 22.9668 181.776 -5.66309c48.4951 -24.792 76.6113 -73.9141 69.7695 -128.299c-2.66016 -21.127 -25.2344 -29.4609 -44.3135 -30.126z" />
    <glyph glyph-name="t" unicode="t" horiz-adv-x="440" 
d="M31.3252 639.715c-16.0303 -0.0830078 -45.5625 5.58789 -46.3145 26.9678c-0.72168 20.6621 27.8555 30.043 44.3125 30.126c61.7451 0.313477 123.486 -0.200195 185.228 -0.551758c7.27246 0.99707 14.8252 0.958984 21.9053 -0.106445
c57.2979 -0.275391 114.596 -0.328125 171.894 0.658203c16.0303 0.275391 45.5674 -5.73145 46.3076 -26.9639c0.725586 -20.7979 -27.8555 -29.8428 -44.3125 -30.126c-47.3916 -0.820312 -94.7832 -0.933594 -142.175 -0.790039
c0.00390625 -214.816 0.0224609 -429.633 0.441406 -644.449c0.0791016 -39.1787 -90.541 -41.6084 -90.6162 -3.16699c-0.422852 216.025 -0.441406 432.055 -0.441406 648.084c-48.7441 0.298828 -97.4844 0.563477 -146.229 0.318359z" />
    <glyph glyph-name="u" unicode="u" horiz-adv-x="491" 
d="M68.7549 134.461c-37.9541 104.024 -48.0264 218.597 -51.6572 328.496c-1.49609 45.3369 -1.50781 90.7529 0.275391 136.078c1.0166 25.8867 1.65918 52.3779 6.81641 77.8574c4.08398 20.1787 40.0322 23.9941 55.0391 21.8818
c18.3535 -2.58398 37.04 -13.4268 32.873 -34.0098c2.49023 12.3047 0.181641 0.25293 -0.321289 -4.27344c-0.646484 -5.84863 -1.11914 -11.7158 -1.55762 -17.583c-1.32227 -17.7305 -2.11523 -35.499 -2.6748 -53.2676
c-1.59082 -50.5654 -1.12207 -101.222 1.31445 -151.753c4.85449 -100.84 14.5566 -205.82 51.9102 -298.696c7.82422 -19.4492 17.2578 -37.9053 28.4482 -55.6201c1.1748 -1.8584 1.73438 -2.77637 1.9873 -3.20703
c0.0302734 0.0185547 0.268555 -0.234375 1.0957 -1.31445c1.08398 -1.41699 2.16797 -2.83008 3.28223 -4.22461c2.72363 -3.4043 5.55762 -6.72168 8.52734 -9.91406c3.16211 -3.40039 6.46387 -6.67188 9.9248 -9.77344
c1.54102 -1.38281 3.13867 -2.68652 4.69922 -4.04688c0.109375 -0.0947266 0.169922 -0.151367 0.268555 -0.238281c0.0830078 -0.0566406 0.131836 -0.0830078 0.222656 -0.143555c4.03125 -2.62988 8.20996 -4.9834 12.2715 -7.54883
c0.816406 -0.517578 1.37598 -0.899414 1.82227 -1.2207c0.499023 -0.128906 1.08105 -0.287109 1.85938 -0.521484c3.77051 -1.14062 7.68457 -2.30762 11.4131 -3.56543c-13.0195 4.38965 -0.336914 0.600586 3.48633 -0.102539
c0.388672 -0.0712891 0.664062 -0.131836 0.989258 -0.196289c0.188477 0.0224609 0.320312 0.0449219 0.546875 0.0673828c1.88184 0.188477 4.12988 0.146484 5.98145 0.138672c1.1748 -0.00390625 1.99805 -0.0302734 2.6709 -0.0683594
c0.59668 0.188477 1.34863 0.400391 2.44824 0.675781c1.03906 0.260742 2.10059 0.491211 3.1543 0.744141c-2.84863 -0.766602 0.619141 -0.245117 2.88184 0.680664c0.695312 0.158203 1.39062 0.339844 2.08203 0.491211
c-0.736328 -0.162109 -1.37891 -0.305664 -1.96484 -0.4375c0.113281 0.0488281 0.234375 0.0976562 0.339844 0.146484c2.19531 1.04688 11.7119 6.03027 10.0986 4.75684c3.50195 2.24023 6.92871 4.55957 10.3105 7.03027
c1.71484 1.25391 2.60645 1.83594 3.06348 2.09277c0.25293 0.392578 0.944336 1.24219 2.53125 2.96484c6.65332 7.23145 12.8418 14.5684 18.5654 22.5703c3.77051 5.27441 9.47168 15.5352 14.5039 26.2002c5.44043 11.542 10.1025 23.4395 14.2246 35.5107
c18.5391 54.2939 26.5332 111.679 31.5166 168.621c10.5215 120.256 6.01465 241.123 2.5166 361.586c-1.13379 38.9521 89.4941 41.8428 90.6162 3.16699c4.18262 -143.834 10.9756 -289.724 -10.8838 -432.538c-15.7656 -103.013 -49.791 -234.953 -168.932 -258.045
c-52.5039 -10.1777 -107.04 2.24414 -147.741 37.2178c-34.0029 29.2158 -55.7158 71.8623 -70.8467 113.334z" />
    <glyph glyph-name="u" unicode="&#xfc;" horiz-adv-x="491" 
d="M68.7549 134.461c-37.9541 104.024 -48.0264 218.597 -51.6572 328.496c-1.49609 45.3369 -1.50781 90.7529 0.275391 136.078c1.0166 25.8867 1.65918 52.3779 6.81641 77.8574c4.08398 20.1787 40.0322 23.9941 55.0391 21.8818
c18.3535 -2.58398 37.04 -13.4268 32.873 -34.0098c2.49023 12.3047 0.181641 0.25293 -0.321289 -4.27344c-0.646484 -5.84863 -1.11914 -11.7158 -1.55762 -17.583c-1.32227 -17.7305 -2.11523 -35.499 -2.6748 -53.2676
c-1.59082 -50.5654 -1.12207 -101.222 1.31445 -151.753c4.85449 -100.84 14.5566 -205.82 51.9102 -298.696c7.82422 -19.4492 17.2578 -37.9053 28.4482 -55.6201c1.1748 -1.8584 1.73438 -2.77637 1.9873 -3.20703
c0.0302734 0.0185547 0.268555 -0.234375 1.0957 -1.31445c1.08398 -1.41699 2.16797 -2.83008 3.28223 -4.22461c2.72363 -3.4043 5.55762 -6.72168 8.52734 -9.91406c3.16211 -3.40039 6.46387 -6.67188 9.9248 -9.77344
c1.54102 -1.38281 3.13867 -2.68652 4.69922 -4.04688c0.109375 -0.0947266 0.169922 -0.151367 0.268555 -0.238281c0.0830078 -0.0566406 0.131836 -0.0830078 0.222656 -0.143555c4.03125 -2.62988 8.20996 -4.9834 12.2715 -7.54883
c0.816406 -0.517578 1.37598 -0.899414 1.82227 -1.2207c0.499023 -0.128906 1.08105 -0.287109 1.85938 -0.521484c3.77051 -1.14062 7.68457 -2.30762 11.4131 -3.56543c-13.0195 4.38965 -0.336914 0.600586 3.48633 -0.102539
c0.388672 -0.0712891 0.664062 -0.131836 0.989258 -0.196289c0.188477 0.0224609 0.320312 0.0449219 0.546875 0.0673828c1.88184 0.188477 4.12988 0.146484 5.98145 0.138672c1.1748 -0.00390625 1.99805 -0.0302734 2.6709 -0.0683594
c0.59668 0.188477 1.34863 0.400391 2.44824 0.675781c1.03906 0.260742 2.10059 0.491211 3.1543 0.744141c-2.84863 -0.766602 0.619141 -0.245117 2.88184 0.680664c0.695312 0.158203 1.39062 0.339844 2.08203 0.491211
c-0.736328 -0.162109 -1.37891 -0.305664 -1.96484 -0.4375c0.113281 0.0488281 0.234375 0.0976562 0.339844 0.146484c2.19531 1.04688 11.7119 6.03027 10.0986 4.75684c3.50195 2.24023 6.92871 4.55957 10.3105 7.03027
c1.71484 1.25391 2.60645 1.83594 3.06348 2.09277c0.25293 0.392578 0.944336 1.24219 2.53125 2.96484c6.65332 7.23145 12.8418 14.5684 18.5654 22.5703c3.77051 5.27441 9.47168 15.5352 14.5039 26.2002c5.44043 11.542 10.1025 23.4395 14.2246 35.5107
c18.5391 54.2939 26.5332 111.679 31.5166 168.621c10.5215 120.256 6.01465 241.123 2.5166 361.586c-1.13379 38.9521 89.4941 41.8428 90.6162 3.16699c4.18262 -143.834 10.9756 -289.724 -10.8838 -432.538c-15.7656 -103.013 -49.791 -234.953 -168.932 -258.045
c-52.5039 -10.1777 -107.04 2.24414 -147.741 37.2178c-34.0029 29.2158 -55.7158 71.8623 -70.8467 113.334z" />
    <glyph glyph-name="u" unicode="&#xfb;" horiz-adv-x="491" 
d="M68.7549 134.461c-37.9541 104.024 -48.0264 218.597 -51.6572 328.496c-1.49609 45.3369 -1.50781 90.7529 0.275391 136.078c1.0166 25.8867 1.65918 52.3779 6.81641 77.8574c4.08398 20.1787 40.0322 23.9941 55.0391 21.8818
c18.3535 -2.58398 37.04 -13.4268 32.873 -34.0098c2.49023 12.3047 0.181641 0.25293 -0.321289 -4.27344c-0.646484 -5.84863 -1.11914 -11.7158 -1.55762 -17.583c-1.32227 -17.7305 -2.11523 -35.499 -2.6748 -53.2676
c-1.59082 -50.5654 -1.12207 -101.222 1.31445 -151.753c4.85449 -100.84 14.5566 -205.82 51.9102 -298.696c7.82422 -19.4492 17.2578 -37.9053 28.4482 -55.6201c1.1748 -1.8584 1.73438 -2.77637 1.9873 -3.20703
c0.0302734 0.0185547 0.268555 -0.234375 1.0957 -1.31445c1.08398 -1.41699 2.16797 -2.83008 3.28223 -4.22461c2.72363 -3.4043 5.55762 -6.72168 8.52734 -9.91406c3.16211 -3.40039 6.46387 -6.67188 9.9248 -9.77344
c1.54102 -1.38281 3.13867 -2.68652 4.69922 -4.04688c0.109375 -0.0947266 0.169922 -0.151367 0.268555 -0.238281c0.0830078 -0.0566406 0.131836 -0.0830078 0.222656 -0.143555c4.03125 -2.62988 8.20996 -4.9834 12.2715 -7.54883
c0.816406 -0.517578 1.37598 -0.899414 1.82227 -1.2207c0.499023 -0.128906 1.08105 -0.287109 1.85938 -0.521484c3.77051 -1.14062 7.68457 -2.30762 11.4131 -3.56543c-13.0195 4.38965 -0.336914 0.600586 3.48633 -0.102539
c0.388672 -0.0712891 0.664062 -0.131836 0.989258 -0.196289c0.188477 0.0224609 0.320312 0.0449219 0.546875 0.0673828c1.88184 0.188477 4.12988 0.146484 5.98145 0.138672c1.1748 -0.00390625 1.99805 -0.0302734 2.6709 -0.0683594
c0.59668 0.188477 1.34863 0.400391 2.44824 0.675781c1.03906 0.260742 2.10059 0.491211 3.1543 0.744141c-2.84863 -0.766602 0.619141 -0.245117 2.88184 0.680664c0.695312 0.158203 1.39062 0.339844 2.08203 0.491211
c-0.736328 -0.162109 -1.37891 -0.305664 -1.96484 -0.4375c0.113281 0.0488281 0.234375 0.0976562 0.339844 0.146484c2.19531 1.04688 11.7119 6.03027 10.0986 4.75684c3.50195 2.24023 6.92871 4.55957 10.3105 7.03027
c1.71484 1.25391 2.60645 1.83594 3.06348 2.09277c0.25293 0.392578 0.944336 1.24219 2.53125 2.96484c6.65332 7.23145 12.8418 14.5684 18.5654 22.5703c3.77051 5.27441 9.47168 15.5352 14.5039 26.2002c5.44043 11.542 10.1025 23.4395 14.2246 35.5107
c18.5391 54.2939 26.5332 111.679 31.5166 168.621c10.5215 120.256 6.01465 241.123 2.5166 361.586c-1.13379 38.9521 89.4941 41.8428 90.6162 3.16699c4.18262 -143.834 10.9756 -289.724 -10.8838 -432.538c-15.7656 -103.013 -49.791 -234.953 -168.932 -258.045
c-52.5039 -10.1777 -107.04 2.24414 -147.741 37.2178c-34.0029 29.2158 -55.7158 71.8623 -70.8467 113.334z" />
    <glyph glyph-name="u" unicode="&#xfa;" horiz-adv-x="491" 
d="M68.7549 134.461c-37.9541 104.024 -48.0264 218.597 -51.6572 328.496c-1.49609 45.3369 -1.50781 90.7529 0.275391 136.078c1.0166 25.8867 1.65918 52.3779 6.81641 77.8574c4.08398 20.1787 40.0322 23.9941 55.0391 21.8818
c18.3535 -2.58398 37.04 -13.4268 32.873 -34.0098c2.49023 12.3047 0.181641 0.25293 -0.321289 -4.27344c-0.646484 -5.84863 -1.11914 -11.7158 -1.55762 -17.583c-1.32227 -17.7305 -2.11523 -35.499 -2.6748 -53.2676
c-1.59082 -50.5654 -1.12207 -101.222 1.31445 -151.753c4.85449 -100.84 14.5566 -205.82 51.9102 -298.696c7.82422 -19.4492 17.2578 -37.9053 28.4482 -55.6201c1.1748 -1.8584 1.73438 -2.77637 1.9873 -3.20703
c0.0302734 0.0185547 0.268555 -0.234375 1.0957 -1.31445c1.08398 -1.41699 2.16797 -2.83008 3.28223 -4.22461c2.72363 -3.4043 5.55762 -6.72168 8.52734 -9.91406c3.16211 -3.40039 6.46387 -6.67188 9.9248 -9.77344
c1.54102 -1.38281 3.13867 -2.68652 4.69922 -4.04688c0.109375 -0.0947266 0.169922 -0.151367 0.268555 -0.238281c0.0830078 -0.0566406 0.131836 -0.0830078 0.222656 -0.143555c4.03125 -2.62988 8.20996 -4.9834 12.2715 -7.54883
c0.816406 -0.517578 1.37598 -0.899414 1.82227 -1.2207c0.499023 -0.128906 1.08105 -0.287109 1.85938 -0.521484c3.77051 -1.14062 7.68457 -2.30762 11.4131 -3.56543c-13.0195 4.38965 -0.336914 0.600586 3.48633 -0.102539
c0.388672 -0.0712891 0.664062 -0.131836 0.989258 -0.196289c0.188477 0.0224609 0.320312 0.0449219 0.546875 0.0673828c1.88184 0.188477 4.12988 0.146484 5.98145 0.138672c1.1748 -0.00390625 1.99805 -0.0302734 2.6709 -0.0683594
c0.59668 0.188477 1.34863 0.400391 2.44824 0.675781c1.03906 0.260742 2.10059 0.491211 3.1543 0.744141c-2.84863 -0.766602 0.619141 -0.245117 2.88184 0.680664c0.695312 0.158203 1.39062 0.339844 2.08203 0.491211
c-0.736328 -0.162109 -1.37891 -0.305664 -1.96484 -0.4375c0.113281 0.0488281 0.234375 0.0976562 0.339844 0.146484c2.19531 1.04688 11.7119 6.03027 10.0986 4.75684c3.50195 2.24023 6.92871 4.55957 10.3105 7.03027
c1.71484 1.25391 2.60645 1.83594 3.06348 2.09277c0.25293 0.392578 0.944336 1.24219 2.53125 2.96484c6.65332 7.23145 12.8418 14.5684 18.5654 22.5703c3.77051 5.27441 9.47168 15.5352 14.5039 26.2002c5.44043 11.542 10.1025 23.4395 14.2246 35.5107
c18.5391 54.2939 26.5332 111.679 31.5166 168.621c10.5215 120.256 6.01465 241.123 2.5166 361.586c-1.13379 38.9521 89.4941 41.8428 90.6162 3.16699c4.18262 -143.834 10.9756 -289.724 -10.8838 -432.538c-15.7656 -103.013 -49.791 -234.953 -168.932 -258.045
c-52.5039 -10.1777 -107.04 2.24414 -147.741 37.2178c-34.0029 29.2158 -55.7158 71.8623 -70.8467 113.334z" />
    <glyph glyph-name="v" unicode="v" horiz-adv-x="549" 
d="M192.718 98.3428c-34.9961 101.671 -69.7627 203.418 -105.167 304.945c-30.3906 87.1328 -59.791 175.011 -94.6172 260.504c-16.0908 39.4961 73.0752 52.0391 86.8496 18.2295c17.915 -43.9883 33.8242 -88.8184 49.832 -133.524
c40.0547 -111.883 78.6289 -224.299 117.237 -336.688c8.63672 -25.1465 17.2656 -50.2969 25.9102 -75.4395c66.9814 179.246 128.367 360.581 195.537 539.763c12.9512 34.5498 102.657 27.2168 87.9111 -12.124c-50.958 -135.938 -99.1396 -272.908 -148.308 -409.5
c-18.8076 -52.25 -37.6299 -104.497 -57.0713 -156.514c-10.5713 -28.2783 -19.8574 -58.4502 -34.0479 -85.21c-19.4453 -36.666 -80.374 -37.8896 -95.1006 2.41113c-10.0762 27.5605 -19.415 55.4014 -28.9658 83.1475zM311.332 25.7852
c1.26562 -2.76562 2.75781 -3.34375 0 0z" />
    <glyph glyph-name="w" unicode="w" horiz-adv-x="635" 
d="M634.866 664.004c-22.4678 -111.642 -44.5889 -223.348 -67.7031 -334.856c-19.752 -95.332 -38.5518 -191.302 -63.6191 -285.421c-6.26758 -23.5371 -10.6992 -51.6719 -35.9141 -62.1338c-24.2588 -10.0645 -58.8389 -5.53418 -70.8193 20.1113
c-4.26562 9.13867 -6.74023 19.4268 -9.57031 29.0605c-25.2598 86.0371 -45.1025 173.809 -66.2637 260.915c-1.26953 5.23633 -2.54297 10.4727 -3.8125 15.709c-4.31445 -17.7871 -8.625 -35.5742 -12.958 -53.3535
c-19.3252 -79.2676 -36.0352 -160.462 -61.8242 -237.957c-2.68652 -8.07324 -5.52734 -16.7891 -11.2061 -23.3516c-20.1523 -23.2959 -70.2715 -22.2383 -85.9541 5.79883c-11.7686 21.0361 -15.5918 49.0312 -21.3047 72.0586
c-49.0049 197.558 -85.4287 398.414 -125.578 597.902c-4.13281 20.5371 30.9502 29.6572 44.3135 30.126c19.0264 0.665039 42.1289 -6.19238 46.3076 -26.96c9.67969 -48.1094 19.2529 -96.2451 28.917 -144.358c21.9805 -109.435 44.1309 -218.847 67.8682 -327.915
c2.22168 -10.208 4.46973 -20.4092 6.73242 -30.6104c13.1963 52.6318 25.7852 105.423 38.5889 158.134c9.0791 37.3916 18.1045 74.7939 27.4775 112.109c3.95605 15.7432 6.46094 34.3877 13.0381 49.666c0.792969 8.50391 7.72559 15.165 17.5293 19.5137
c11.7236 6.2832 26.6846 7.81738 39.1406 6.06445c3.39648 -0.479492 7.59375 -1.5752 11.8818 -3.21875c7.48828 -2.35742 13.873 -6.14648 18.04 -11.5117c2.23633 -2.52734 3.85352 -5.33789 4.52637 -8.40527c8.71191 -20.1143 11.8477 -45.0566 17.0156 -65.7871
c20.8281 -83.5439 40.6025 -167.349 61.3965 -250.904c0.525391 -2.1123 1.06543 -4.27344 1.59863 -6.41211c38.623 168.479 70.1582 338.752 104.244 508.114c4.06152 20.1787 40.0508 23.9912 55.0381 21.8828c18.3691 -2.58398 37.0176 -13.4229 32.873 -34.0098z
M231.747 17.3418c0.0302734 -3.01074 4.0459 2.0293 -0.751953 1.84375c0.385742 -0.661133 0.748047 -1.33398 0.751953 -1.84375zM401.956 13.7031c0 0.37793 0.645508 0.876953 0.675781 1.24707c0.0683594 0.800781 0.529297 1.71094 1.0127 2.61035
c-1.03906 -1.28027 -1.68848 -2.57617 -1.68848 -3.85742z" />
    <glyph glyph-name="x" unicode="x" horiz-adv-x="498" 
d="M379.646 8.43262c-46.1982 72.3418 -91.5771 145.202 -136.229 218.496c-47.6299 -76.4717 -95.8115 -152.604 -144.602 -228.342c-19.3623 -30.0586 -105.434 -14.5645 -79.252 26.0801c59.8213 92.8604 118.688 186.325 176.707 280.312
c-68.3105 114.033 -134.812 229.15 -199.355 345.367c-20.0127 36.0352 68.9756 50.4141 86.8496 18.2285c52.7529 -94.9805 106.847 -189.205 162.116 -282.734c56.9883 93.458 113.146 187.426 168.361 281.953c11.0127 18.8525 34.2021 24.8145 55.0381 21.8828
c13.1553 -1.84766 43.8027 -15.2939 32.873 -34.0068c-68.3828 -117.066 -138.159 -233.317 -209.225 -348.771c56.6104 -94.1719 114.422 -187.626 173.567 -280.237c11.7646 -18.418 -17.3037 -33.4277 -30.417 -36.2197
c-20.0088 -4.25781 -44.7852 -0.245117 -56.4326 17.9912z" />
    <glyph glyph-name="y" unicode="y" horiz-adv-x="504" 
d="M508.103 661.934c-72.7354 -65.1641 -145.062 -130.812 -216.577 -197.317v-65.1152c-0.00390625 -130.411 0.592773 -260.841 -0.313477 -391.248c-0.272461 -39.2393 -90.8848 -41.5215 -90.6162 -3.16699c0.166016 23.5449 0.147461 47.0898 0.177734 70.6348
c0.162109 128.918 0.135742 257.84 0.135742 386.759c-4.24316 3.4043 -8.33105 6.99707 -12.3506 10.4385c-16.1094 13.79 -31.5801 28.3467 -47.0508 42.8359c-48.2305 45.1699 -95.792 91.0508 -143.845 136.41c-15.8447 14.9531 -0.400391 33.25 14.8896 39.6201
c19.3545 8.06641 46.5371 6.84961 62.3486 -8.07324c45.3633 -42.8164 90.3184 -86.0713 135.753 -128.812c11.7422 -11.0469 23.5557 -22.0225 35.4902 -32.8652c60.4639 55.8057 121.427 111.078 182.707 165.98c16.5664 14.8477 40.2432 19.6084 61.6309 12.4072
c14.2314 -4.79102 33.9033 -23.9004 17.6201 -38.4873zM273.954 497.675c3.6084 -1.36035 7.7627 -2.41406 -0.118164 0.102539c0.0380859 -0.0341797 0.0800781 -0.0683594 0.118164 -0.102539z" />
    <glyph glyph-name="y" unicode="&#xff;" horiz-adv-x="504" 
d="M508.103 661.934c-72.7354 -65.1641 -145.062 -130.812 -216.577 -197.317v-65.1152c-0.00390625 -130.411 0.592773 -260.841 -0.313477 -391.248c-0.272461 -39.2393 -90.8848 -41.5215 -90.6162 -3.16699c0.166016 23.5449 0.147461 47.0898 0.177734 70.6348
c0.162109 128.918 0.135742 257.84 0.135742 386.759c-4.24316 3.4043 -8.33105 6.99707 -12.3506 10.4385c-16.1094 13.79 -31.5801 28.3467 -47.0508 42.8359c-48.2305 45.1699 -95.792 91.0508 -143.845 136.41c-15.8447 14.9531 -0.400391 33.25 14.8896 39.6201
c19.3545 8.06641 46.5371 6.84961 62.3486 -8.07324c45.3633 -42.8164 90.3184 -86.0713 135.753 -128.812c11.7422 -11.0469 23.5557 -22.0225 35.4902 -32.8652c60.4639 55.8057 121.427 111.078 182.707 165.98c16.5664 14.8477 40.2432 19.6084 61.6309 12.4072
c14.2314 -4.79102 33.9033 -23.9004 17.6201 -38.4873zM273.954 497.675c3.6084 -1.36035 7.7627 -2.41406 -0.118164 0.102539c0.0380859 -0.0341797 0.0800781 -0.0683594 0.118164 -0.102539z" />
    <glyph glyph-name="y" unicode="&#xfd;" horiz-adv-x="504" 
d="M508.103 661.934c-72.7354 -65.1641 -145.062 -130.812 -216.577 -197.317v-65.1152c-0.00390625 -130.411 0.592773 -260.841 -0.313477 -391.248c-0.272461 -39.2393 -90.8848 -41.5215 -90.6162 -3.16699c0.166016 23.5449 0.147461 47.0898 0.177734 70.6348
c0.162109 128.918 0.135742 257.84 0.135742 386.759c-4.24316 3.4043 -8.33105 6.99707 -12.3506 10.4385c-16.1094 13.79 -31.5801 28.3467 -47.0508 42.8359c-48.2305 45.1699 -95.792 91.0508 -143.845 136.41c-15.8447 14.9531 -0.400391 33.25 14.8896 39.6201
c19.3545 8.06641 46.5371 6.84961 62.3486 -8.07324c45.3633 -42.8164 90.3184 -86.0713 135.753 -128.812c11.7422 -11.0469 23.5557 -22.0225 35.4902 -32.8652c60.4639 55.8057 121.427 111.078 182.707 165.98c16.5664 14.8477 40.2432 19.6084 61.6309 12.4072
c14.2314 -4.79102 33.9033 -23.9004 17.6201 -38.4873zM273.954 497.675c3.6084 -1.36035 7.7627 -2.41406 -0.118164 0.102539c0.0380859 -0.0341797 0.0800781 -0.0683594 0.118164 -0.102539z" />
    <glyph glyph-name="z" unicode="z" horiz-adv-x="438" 
d="M38.4795 -21.8711c-13.4268 -0.204102 -58.5596 9.9541 -44.9512 34.6094c14.999 27.168 29.9941 54.3398 44.9932 81.5078c64.7109 117.236 129.425 234.47 194.136 351.706c34.4971 62.4961 68.998 124.996 103.495 187.492
c-88.7314 0.521484 -177.474 0.50293 -266.201 -0.396484c-16.0303 -0.162109 -45.5596 5.64453 -46.3037 26.96c-0.72168 20.7188 27.8555 29.96 44.3125 30.126c109.994 1.11426 220.019 0.925781 330.013 -0.0410156
c13.2764 -0.117188 58.6807 -9.73633 44.9512 -34.6074c-14.999 -27.168 -29.9941 -54.3398 -44.9932 -81.5078c-64.7139 -117.236 -129.428 -234.47 -194.139 -351.706c-34.2256 -62.002 -68.4512 -124.008 -102.677 -186.014
c87.0693 1.44727 174.191 2.86816 261.234 1.79102c16.0342 -0.200195 45.5518 -5.38379 46.3076 -26.9639c0.713867 -20.4658 -27.8555 -30.3301 -44.3125 -30.126c-108.581 1.34082 -217.295 -1.19824 -325.865 -2.83008z" />
    <glyph glyph-name="braceleft" unicode="{" horiz-adv-x="280" 
d="M385.93 -209.071c14.2471 -14.7686 1.64746 -33.8076 -14.8926 -39.6367c-54.6875 -19.2529 -114.846 -10.3369 -160.541 25.8076c-39.333 31.1123 -58.5479 79.5654 -66.5576 127.777c-8.36816 50.373 -4.07227 101.917 -6.95898 152.694
c-2.72754 47.8945 -6.78125 99.6611 -21.0127 145.708c-4.61719 14.9424 -11.0742 35.3359 -24.7734 44.6338c-15.543 10.5518 -38.4609 11.5684 -41.0225 37.3613c-2.08203 20.9648 15.4893 44.9551 23.6689 63.335c9.48242 21.3008 18.2588 42.9111 26.3438 64.7822
c34.9697 94.5869 48.4873 192.737 72.251 290.154c21.5391 88.2969 62.833 206.346 175.15 193.708c15.6562 -1.76074 40.3574 -14.1826 32.873 -34.0059c-7.00488 -18.5537 -32.3672 -23.2275 -50.5889 -22.2344l-0.0410156 -0.0410156
c-1.51465 -1.56445 -4.03809 -2.83398 -5.85938 -4.32617c-7.04199 -5.77246 -13.0645 -14.1143 -18.0059 -21.7305c-11.5947 -17.8584 -19.4229 -38.959 -26.5781 -58.9033c-15.6182 -43.5342 -25.0674 -88.9346 -33.9189 -134.233
c-16.918 -86.5547 -36.6924 -171.164 -70.0146 -253.113c-8.3418 -20.5186 -17.3223 -40.7764 -26.9189 -60.7393c-1.52637 -3.17773 -2.85645 -8.10449 -4.88867 -11.501c4.16309 -2.27051 8.11133 -4.75977 9.87988 -5.81348
c31.2822 -18.6104 45.7109 -52.8359 53.9883 -86.6113c10.5713 -43.1377 16.3066 -87.9111 19.3975 -132.175c3.09375 -44.3018 0.667969 -88.7842 4.07227 -133.048c2.81055 -36.5645 10.4385 -75.2588 32.4453 -105.607c9.40723 -12.9736 21.875 -24.5342 36.666 -31.0176
c5.40625 -2.36914 10.1475 -3.3291 15.6182 -4.15625c-0.234375 0.0380859 5.62207 0.21582 7.87012 1.00586c19.1055 6.72852 46.9229 7.91113 62.3486 -8.07422zM330.688 841.826c3.92871 1.26953 4.18262 4.00098 0 0z" />
    <glyph glyph-name="verticalbar" unicode="|" horiz-adv-x="152" 
d="M120.621 554.183c0.0146484 -250.401 0.114258 -500.802 0.446289 -751.211c0.0527344 -39.1787 -90.5674 -41.6006 -90.6162 -3.16309c-0.0947266 71.0234 -0.173828 142.043 -0.238281 213.066c-0.230469 264.626 -0.211914 529.248 -0.211914 793.87
c0 39.1895 90.6162 41.5889 90.6162 3.16602c0 -85.2402 0 -170.484 0.00390625 -255.729z" />
    <glyph glyph-name="braceright" unicode="}" horiz-adv-x="279" 
d="M224.757 309.425c7.96387 -21.2178 3.36914 -39.5459 -16.4053 -51.5605c-16.499 -10.0303 -25.1094 -8.49609 -35.042 -27.5264c-9.03711 -17.3115 -13.3027 -37.127 -16.9902 -56.1309c-9.81543 -50.5654 -14.542 -102.102 -15.2637 -153.577
c-0.706055 -50.2402 0.567383 -101.135 -13.6309 -149.895c-26.8389 -92.1846 -122.404 -154.45 -217.351 -121.022c-16.2871 5.73535 -31.5615 21.8379 -17.6172 38.4873c13.6914 16.3477 42.5977 19.1094 61.6318 12.4072
c11.7607 -4.14062 18.8594 -3.79688 33.6162 4.43945c14.3906 8.03223 26.1514 21.9697 34.4482 35.9746c23.1973 39.167 26.9453 85.6934 27.8291 130.127c0.899414 44.9668 0.842773 89.6084 5.86426 134.382c4.55273 40.5986 9.22656 84.2422 23.5078 122.79
c6.04102 16.3174 14.9082 32.665 27.1152 45.1973c5.40625 5.5498 11.5078 10.6309 17.9951 14.8701c3.28711 2.14551 6.89551 4.43164 10.5869 6.19238c-3.17383 6.47168 -7.0127 17.3301 -8.16113 19.7861c-4.94922 10.5557 -9.7207 21.1943 -14.3223 31.9053
c-8.27734 19.2793 -15.9961 38.8047 -23.1406 58.5332c-29.2646 80.8574 -44.8789 164.197 -62.1631 248.127c-8.5498 41.5283 -18.8223 82.7656 -35.1924 121.993c-7.38184 17.6816 -15.3418 36.1943 -27.9375 50.8643c-3.9668 4.62012 -9.22559 8.26172 -13.083 12.8066
c8.71191 -10.2607 -3.04883 0.102539 -4.40137 2.48633c-0.786133 -0.0830078 -1.66602 -0.177734 -2.75391 -0.298828c-15.9434 -1.79492 -45.6006 6.84961 -46.3037 26.96c-0.762695 21.8711 27.9502 28.2861 44.3125 30.126
c121.589 13.6807 156.075 -146.936 174.603 -235.131c9.7627 -46.4629 17.3486 -93.4053 28.9209 -139.475c12.4863 -49.7158 28.9512 -98.54 48.5635 -145.883c9.46387 -22.8457 22.0977 -44.8682 30.7646 -67.9561zM-50.8857 841.328
c1.43555 0.0419922 2.50879 0.230469 0 0z" />
    <glyph glyph-name="nonbreakingspace" unicode="&#xa0;" horiz-adv-x="265" 
 />
    <glyph glyph-name="exclamdown" unicode="&#xa1;" horiz-adv-x="149" 
d="M121.347 310.268c0 -224.983 0.0078125 -449.966 0.446289 -674.956c0.0791016 -39.1748 -90.541 -41.6045 -90.6162 -3.16309c-0.438477 224.983 -0.446289 449.97 -0.446289 674.953c0 39.1895 90.6162 41.5889 90.6162 3.16602zM118.426 397.36
c0.173828 -39.1592 -90.4443 -41.6299 -90.6143 -3.16602c-0.192383 44.1123 -2.61426 88.251 1.97559 132.228c2.20996 21.1494 25.6074 29.4727 44.3125 30.126c14.292 0.50293 48.4717 -6.19531 46.3027 -26.96c-4.59082 -43.9766 -2.16895 -88.1113 -1.97656 -132.228z
" />
    <glyph glyph-name="cent" unicode="&#xa2;" horiz-adv-x="505" 
d="M447.536 180.234c17.8281 -2.50879 37.7373 -13.5078 32.8633 -34.0039c-12.8193 -54.0303 -43.5996 -105.623 -90.4854 -136.739c-22.8115 -15.1387 -48.5059 -24.8105 -75.1562 -29.5176c0.0224609 -16.1777 0.0263672 -32.3594 0.0527344 -48.5371
c0.0644531 -39.1748 -90.5557 -41.6006 -90.6162 -3.16309c-0.0263672 18.1191 -0.0449219 36.2383 -0.0712891 54.3574c-6.99707 1.625 -13.9258 3.52148 -20.7266 5.79199c-109.05 36.4014 -162.154 144.737 -175.264 252.182
c-13.125 107.546 -1.7793 224.265 42.2578 323.922c21.3418 48.3066 50.3457 96.6396 92.8604 129.135c18.0928 13.8281 38.7549 23.3379 60.501 28.9785v33.0264c0 39.1855 90.6162 41.585 90.6162 3.16211v-33.8594c5.29297 -1.02344 10.5518 -2.17188 15.7236 -3.58105
c115.767 -31.5244 140.294 -169.495 153.287 -270.951c2.66699 -20.8359 -29.7109 -29.6162 -44.3135 -30.126c-17.9043 -0.626953 -43.6211 6.02246 -46.3037 26.96c-6.87988 53.7012 -14.9307 106.783 -38.8008 155.984
c-9.55469 19.6992 -22.5928 39.7646 -39.5898 53.1016c0.00390625 -36.1143 0 -72.2285 0.00390625 -108.343c0.0146484 -168.482 0.116211 -336.965 0.320312 -505.447c40.7012 19.9824 67.208 71.126 77.8018 115.786c4.7793 20.1406 39.458 24.0732 55.0391 21.8818z
M120.583 230.281c9.91699 -66.0703 41.3438 -146.887 103.455 -181.056c-0.0224609 18.2363 -0.0527344 36.4766 -0.0712891 54.7168c-0.192383 182.412 -0.204102 364.82 -0.204102 547.232c-12.1084 -10.6465 -22.5889 -23.9756 -31.4336 -36.666
c-25.0146 -35.8955 -42.583 -77.5488 -55.0469 -119.33c-25.207 -84.5 -29.7637 -177.825 -16.6992 -264.897z" />
    <glyph glyph-name="sterling" unicode="&#xa3;" horiz-adv-x="537" 
d="M440.657 16.3242c16.0117 0.748047 45.583 -6.08008 46.3193 -26.9688c0.736328 -21.1348 -27.8711 -29.3555 -44.3135 -30.126c-75.1006 -3.51367 -150.571 -3.27539 -225.725 -1.88086c-24.9355 0.464844 -53.6641 -2.20605 -75.4639 12.0938
c-25.6572 16.835 -14.0244 42.6318 -6.75879 66.3428c7.07617 23.0957 12.4482 46.7686 16.0264 70.6572c9.48242 63.3545 9.87109 127.302 10.2412 191.249c-21.5654 -0.713867 -43.127 -1.80176 -64.6582 -3.33594c-15.9961 -1.14062 -45.5898 6.36621 -46.3076 26.96
c-0.748047 21.4062 27.8936 28.9551 44.3125 30.126c22.4043 1.59766 44.8154 2.6709 67.2266 3.33594c0.317383 17.6094 0.827148 35.2002 1.74512 52.7686c4.69238 89.8877 14.2773 209.845 91.9844 269.152c40.4854 30.8965 99.0566 41.6748 146.788 22.3955
c44.1689 -17.8438 72.8213 -59.123 75.3408 -106.519c2.05859 -38.7061 -88.5537 -42.001 -90.6162 -3.16602c-1.14844 21.6523 -11.1152 52.1416 -33.7119 60.7969c-16.8008 6.43359 -39.4648 -16.5674 -50.2471 -31.668
c-18.9277 -26.5107 -27.7568 -60.3965 -34.7354 -91.7578c-7.74121 -34.792 -11.4365 -70.3887 -13.6123 -105.925c-1.34082 -21.916 -1.9873 -43.8555 -2.36914 -65.7988c29.9111 -0.691406 59.8184 -2.1084 89.71 -4.24707
c15.8301 -1.12988 40.1875 -14.6367 32.873 -34.0068c-7.7793 -20.5938 -36.6172 -23.1973 -55.0391 -21.8828c-22.6943 1.625 -45.4121 2.63379 -68.1406 3.18945c-0.200195 -31.6035 -0.426758 -63.207 -1.77148 -94.7803
c-1.52637 -35.7969 -4.47656 -71.583 -10.5176 -106.927c-3.06445 -17.9307 -6.55566 -35.7783 -11.1465 -53.3877c-2.25586 -8.65527 -4.74219 -17.2539 -7.48145 -25.7695c-0.260742 -0.808594 -0.676758 -1.80566 -1.13379 -2.86328
c21.5498 -0.366211 43.1035 -0.521484 64.6533 -0.566406c52.1631 -0.105469 104.41 0.0683594 156.528 2.50879zM194 14.9629c0.453125 -0.0117188 0.907227 -0.0224609 1.36035 -0.0341797c-3.25684 0.59668 -5.09668 0.604492 -1.36035 0.0341797z" />
    <glyph glyph-name="currency" unicode="&#xa4;" horiz-adv-x="480" 
d="M459.362 61.6758c19.2344 -36.8584 -69.8311 -50.8486 -86.8477 -18.2285c-18.0059 34.5049 -36.3818 68.8174 -55.083 102.948c-8.56445 -6.01074 -17.8359 -11.1523 -27.8438 -15.2217c-43.2246 -17.5791 -93.5068 -15.6445 -131.82 8.58008
c-16.877 -30.9385 -33.4971 -62.0088 -49.8027 -93.2529c-10.0117 -19.1816 -35.0605 -24.6934 -55.0391 -21.8828c-13.8994 1.95312 -42.8545 14.8779 -32.873 34.0059c26.4648 50.7051 53.6709 101.021 81.6357 150.911
c-27.8555 59.7842 -32.0264 132.398 -23.4121 195.764c4.26953 31.3877 11.9844 63.7432 25.1016 92.6455c-24.2139 33.1182 -49.9541 65.1104 -77.9912 95.3574c-14.5762 15.7246 -1.52344 32.7822 14.8887 39.6201c18.3994 7.66895 47.793 7.63086 62.3496 -8.07422
c17.9453 -19.3623 35.0225 -39.4385 51.4082 -60.0557c12.9365 9.9707 27.8594 17.874 45.0762 23.0576c2.15332 0.740234 4.25781 1.33301 6.2334 1.76367c1.66602 0.426758 3.49121 0.748047 5.37598 1.0166c40.7578 7.375 82.5693 -1.85059 114.403 -28.418
c16.291 20.5635 33.2812 40.5947 51.1855 59.9082c14.7725 15.9316 41.8535 19.0635 61.6357 12.4023c15.6299 -5.2666 32.1963 -22.7588 17.6172 -38.4863c-29.8428 -32.1963 -57.1924 -66.3613 -82.8867 -101.754c5.29297 -12.5205 9.58887 -25.4268 13.042 -38.2158
c20.2197 -74.8848 21.8105 -161.734 -9.28613 -234.069c-0.570312 -1.33398 -1.19336 -2.64453 -1.79004 -3.96289c29.0459 -51.6758 57.2939 -103.802 84.7227 -156.358zM237.963 536.063c-1.00879 0.412109 -1.80273 0.660156 -0.15918 -0.000976562
c0.0224609 -0.0078125 0.0449219 -0.0117188 0.0673828 -0.015625c-0.0078125 -0.00390625 -0.015625 -0.00390625 -0.0234375 -0.00390625c0.0302734 -0.0117188 0.0791016 -0.0302734 0.113281 -0.0449219c0.0185547 0.0078125 0.0410156 0.0117188 0.0634766 0.015625
c0.0380859 -0.0117188 0.0800781 -0.0195312 0.118164 -0.0273438l-0.0791016 0.0351562c0.294922 0.0644531 0.567383 0.117188 0.896484 0.189453c-0.298828 -0.0683594 -0.661133 -0.0986328 -0.99707 -0.147461zM239.088 535.56
c-0.101562 0.0488281 -0.210938 0.101562 -0.324219 0.154297c-0.0449219 0.0078125 -0.0869141 0.0117188 -0.128906 0.0195312c0.139648 -0.0527344 0.294922 -0.113281 0.453125 -0.173828zM233.692 535.854c2.84863 0.105469 2.98047 0.495117 0 0zM214.33 522.666
c-6.62305 -7.13672 -10.875 -12.6992 -14.6416 -19.0166c14.0615 -19.9482 27.666 -40.2285 40.9189 -60.7432c11.5498 17.9043 23.3564 35.6348 35.5107 53.1123c-7.41211 13.4238 -9.29004 16.5176 -20.0879 27.2549c-2.3125 2.30078 -4.76855 4.40918 -7.20898 6.56641
c0 0.00390625 -0.00390625 0.00390625 -0.00390625 0.00390625c-0.823242 0.582031 -1.66211 1.14844 -2.51562 1.62793c-1.84766 1.04297 -3.77051 2.07422 -5.61816 3.16992c-0.706055 0.238281 -1.43945 0.525391 -1.50781 0.657227
c-0.0908203 0.169922 -0.366211 0.325195 -0.72168 0.464844c-0.351562 0.0566406 -0.691406 0.0986328 -1.02344 0.128906c0.121094 0.0263672 0.268555 0.0566406 0.397461 0.0830078c-0.0566406 0.0146484 -0.0986328 0.0332031 -0.155273 0.0478516
c-0.234375 -0.0302734 -0.438477 -0.0751953 -0.683594 -0.0976562c-1.21289 0.0751953 -2.25195 0 -2.97754 -0.121094h-0.631836c-0.578125 -0.101562 -1.24316 -0.230469 -2.02539 -0.400391c-0.117188 -0.0302734 -0.185547 -0.0449219 -0.287109 -0.0673828
c-0.566406 -0.298828 -1.2998 -0.665039 -2.33105 -1.16406c-0.733398 -0.355469 -1.12598 -0.510742 -1.33008 -0.555664c-0.521484 -0.392578 -1.1709 -0.87207 -2.06641 -1.52148c-0.925781 -0.668945 -4.34082 -3.24902 -5.75781 -4.25
c-1.2959 -1.30762 -4.43555 -4.2998 -5.25195 -5.17969zM187.931 357.965c1.23926 2.0625 2.49219 4.12012 3.73926 6.18262c-7.74512 12.6865 -15.5654 25.3242 -23.499 37.8867c-0.914062 -7.48047 -1.6543 -14.9873 -2.12695 -22.498
c-1.19727 -19.1279 -1.12891 -38.46 0.344727 -57.6709c7.13281 12.0596 14.3145 24.0928 21.542 36.0996zM264.424 195.413c5.60254 6.19238 10.3721 12.8506 14.6074 19.8779c-13.0645 23.0723 -26.2949 46.0508 -39.6885 68.9346
c-14.292 -24.4551 -28.3955 -49.0195 -42.3135 -73.6904c3.54004 -6.14648 7.30273 -11.6963 11.2129 -16.3164c4.23535 -5.00586 9.12793 -11.0889 14.6855 -14.6855c1.14844 -0.740234 5.94629 -2.52344 6.50879 -2.75781
c0.505859 -0.0722656 4.15527 -0.0419922 4.48047 -0.155273c5.13477 0.84668 12.623 3.93359 18.4639 7.88184c1.31445 0.891602 5.99902 4.8584 6.13867 4.83203c2.03223 1.96484 4.00781 3.98633 5.9043 6.0791zM309.559 330.718
c1.14844 21.8486 0.256836 44.0801 -2.61035 65.7061c-6.28711 -10.001 -12.5059 -20.043 -18.668 -30.1191c1.06543 -1.76465 2.14258 -3.52539 3.2041 -5.29395c6.06348 -10.0723 12.0742 -20.1787 18.0742 -30.293z" />
    <glyph glyph-name="yen" unicode="&#xa5;" horiz-adv-x="679" 
d="M621.312 201.928c16.0342 -0.291016 45.5488 -5.31738 46.3008 -26.9619c0.709961 -20.4014 -27.8594 -30.4248 -44.3125 -30.126c-66.7842 1.20117 -133.55 1.49219 -200.308 1.39062c-2.86719 -7.3291 -5.71582 -14.666 -8.58691 -21.9912
c-0.0078125 -0.0146484 -0.015625 -0.0263672 -0.0234375 -0.0410156c-0.00390625 -39.7598 -0.0263672 -79.5166 -0.305664 -119.276c-0.275391 -39.2393 -90.8877 -41.5176 -90.6152 -3.16699c0.291016 41.3135 0.30957 82.626 0.30957 123.938
c-4.12598 6.17383 -7.50391 13.042 -10.5078 20.0957c-72.3047 -0.412109 -144.613 -0.941406 -216.948 -0.953125c-16.0303 -0.00390625 -45.5557 5.52734 -46.3037 26.96c-0.717773 20.6055 27.8555 30.1221 44.3125 30.126
c65.2773 0.0078125 130.535 0.450195 195.79 0.835938c-8.68945 21.3955 -17.2129 42.8545 -25.6191 64.3594c-56.0508 -0.335938 -112.105 -0.665039 -168.176 -0.672852c-16.0303 -0.00390625 -45.5557 5.52734 -46.3037 26.96
c-0.717773 20.6055 27.8555 30.1221 44.3125 30.126c49.3984 0.0078125 98.7852 0.264648 148.168 0.555664c-42.1816 110.5 -82.3428 221.798 -126.769 331.399c-16.0264 39.5371 73.1396 52.0576 86.8506 18.2285c14.6475 -36.1406 28.4678 -72.6182 42.3789 -109.046
c30.5498 -80.0078 60.7744 -160.141 91.5811 -240.05c21.1797 0.109375 42.3555 0.18457 63.5352 0.241211c46.2627 118.756 91.9805 237.783 134.17 357.979c12.1953 34.7432 101.901 27.7354 87.9111 -12.123c-15.2598 -43.4707 -31.3281 -86.6611 -47.498 -129.799
c-27.0469 -72.1533 -54.5059 -144.155 -82.2256 -216.06c42.9531 -0.158203 85.9131 -0.546875 128.881 -1.32129c16.0342 -0.291016 45.5518 -5.31543 46.3076 -26.9639c0.709961 -20.4014 -27.8594 -30.4248 -44.3125 -30.126
c-51 0.921875 -101.984 1.27344 -152.966 1.36035c-8.33789 -21.5049 -16.6797 -43.0098 -25.0557 -64.499c58.666 0 117.339 -0.321289 176.027 -1.37891zM368.194 243.175c3.19629 8.17188 6.38574 16.3516 9.57422 24.5234
c-6.38867 -0.0224609 -12.7812 -0.0302734 -19.1738 -0.0605469c3.18457 -8.16016 6.38086 -16.3174 9.59961 -24.4629z" />
    </font>
</defs>
</svg>
